<?xml version="1.0" standalone="no"?>
<!DOCTYPE svg PUBLIC "-//W3C//DTD SVG 1.1//EN" "http://www.w3.org/Graphics/SVG/1.1/DTD/svg11.dtd" >
<svg xmlns="http://www.w3.org/2000/svg">
<metadata>Generated by IcoMoon</metadata>
<defs>
<font id="icomoon" horiz-adv-x="1024">
<font-face units-per-em="1024" ascent="960" descent="-64" />
<missing-glyph horiz-adv-x="1024" />
<glyph unicode="&#x20;" horiz-adv-x="512" d="" />
<glyph unicode="&#xe900;" glyph-name="right-quotes-symbol" d="M1023.77 646.23c0 0.111 0.012 0.222 0.012 0.333 0 134.626-109.133 243.759-243.759 243.759s-243.757-109.131-243.757-243.759c0-134.628 109.143-243.759 243.759-243.759 27.668 0 54.152 4.823 78.934 13.321-54.842-314.611-300.179-517.503-72.754-350.518 252.183 185.167 237.848 573.519 237.566 580.624zM243.759 402.805c27.668 0 54.152 4.823 78.946 13.321-54.856-314.611-300.193-517.503-72.766-350.518 252.183 185.165 237.85 573.517 237.566 580.622 0 0.111 0.012 0.222 0.012 0.333 0 134.626-109.131 243.759-243.757 243.759-134.628 0-243.759-109.131-243.759-243.759s109.143-243.757 243.759-243.757z" />
<glyph unicode="&#xe901;" glyph-name="share" d="M948.664 789.336c0-76.586-62.078-138.672-138.664-138.672s-138.664 62.086-138.664 138.672c0 76.578 62.078 138.664 138.664 138.664s138.664-62.086 138.664-138.664zM810 618.664c-94.125 0-170.664 76.547-170.664 170.672 0 94.117 76.539 170.664 170.664 170.664s170.664-76.547 170.664-170.664c0-94.125-76.539-170.672-170.664-170.672zM810 896c-58.836 0-106.664-47.875-106.664-106.664 0-58.797 47.828-106.672 106.664-106.672s106.664 47.875 106.664 106.672c0 58.789-47.828 106.664-106.664 106.664zM948.664 106.664c0-76.578-62.078-138.664-138.664-138.664s-138.664 62.086-138.664 138.664c0 76.586 62.078 138.672 138.664 138.672s138.664-62.086 138.664-138.672zM810-64c-94.125 0-170.664 76.547-170.664 170.664 0 94.125 76.539 170.672 170.664 170.672s170.664-76.547 170.664-170.672c0-94.117-76.539-170.664-170.664-170.664zM810 213.336c-58.836 0-106.664-47.875-106.664-106.672 0-58.789 47.828-106.664 106.664-106.664s106.664 47.875 106.664 106.664c0 58.797-47.828 106.672-106.664 106.672zM351.336 448c0-76.586-62.086-138.664-138.672-138.664-76.578 0-138.664 62.078-138.664 138.664s62.086 138.664 138.664 138.664c76.586 0 138.672-62.078 138.672-138.664zM212.664 277.336c-94.117 0-170.664 76.539-170.664 170.664s76.547 170.664 170.664 170.664c94.125 0 170.672-76.539 170.672-170.664s-76.547-170.664-170.672-170.664zM212.664 554.664c-58.836 0-106.664-47.867-106.664-106.664s47.828-106.664 106.664-106.664c58.844 0 106.672 47.867 106.672 106.664s-47.828 106.664-106.672 106.664zM313.406 468.477c-14.852 0-29.273 7.727-37.125 21.547-11.648 20.438-4.477 46.508 15.961 58.203l395.898 225.703c20.438 11.734 46.508 4.563 58.203-15.953 11.648-20.438 4.477-46.508-15.961-58.203l-395.906-225.703c-6.656-3.797-13.906-5.594-21.070-5.594zM709.266 116.477c-7.172 0-14.422 1.797-21.078 5.594l-395.906 225.703c-20.438 11.648-27.602 37.719-15.953 58.203 11.602 20.477 37.711 27.688 58.195 15.953l395.906-225.703c20.438-11.648 27.602-37.719 15.953-58.203-7.891-13.82-22.313-21.547-37.117-21.547z" />
<glyph unicode="&#xe902;" glyph-name="add" d="M1007.484 464.516h-478.968v478.968c0 9.121-7.395 16.516-16.516 16.516s-16.516-7.395-16.516-16.516v-478.968h-478.968c-9.121 0-16.516-7.395-16.516-16.516s7.395-16.516 16.516-16.516h478.968v-478.968c0-9.121 7.395-16.516 16.516-16.516s16.516 7.395 16.516 16.516v478.968h478.968c9.121 0 16.516 7.395 16.516 16.516s-7.395 16.516-16.516 16.516z" />
<glyph unicode="&#xe903;" glyph-name="plus" d="M544 832v-352h352v-64h-352v-352h-64v352h-352v64h352v352z" />
<glyph unicode="&#xe904;" glyph-name="pdf" d="M899.531 744.836l-205.453 205.453c-6.162 6.162-14.707 9.71-23.446 9.71h-512.388c-20.939 0-43.485-16.172-43.485-51.659v-937.031c0-14.777 14.866-29.184 32.45-33.721 0.883-0.23 1.73-0.565 2.648-0.742 2.754-0.547 5.561-0.847 8.386-0.847h707.513c2.825 0 5.632 0.3 8.386 0.847 0.918 0.177 1.766 0.512 2.648 0.742 17.585 4.537 32.45 18.944 32.45 33.721v741.906c0 13.542-1.624 23.534-9.71 31.62zM846.301 748.138h-148.921v148.921l148.921-148.921zM158.243-28.69c-1.254 0-2.383 0.459-3.496 0.865-2.754 1.306-4.679 4.061-4.679 7.309v256.653h723.862v-256.653c0-3.249-1.924-5.985-4.679-7.309-1.112-0.406-2.242-0.865-3.496-0.865h-707.513zM150.069 271.448v636.893c0 3.831 0.583 16.349 8.174 16.349h504.85c-0.583-2.225-1.024-4.52-1.024-6.903v-204.959h204.959c2.383 0 4.661 0.441 6.886 1.024 0-0.265 0.018-0.371 0.018-0.636v-441.768h-723.862zM389.155 170.037c-5.879 4.82-12.518 8.457-19.915 10.858-7.398 2.419-14.883 3.619-22.44 3.619h-51.165v-177.894h28.972v64.212h21.486c9.322 0 17.867 1.359 25.582 4.096s14.318 6.603 19.791 11.582c5.473 4.979 9.728 11.14 12.8 18.467 3.054 7.327 4.59 15.484 4.59 24.505 0 8.527-1.818 16.207-5.438 23.058s-8.386 12.659-14.265 17.496zM378.174 111.263c-1.783-4.908-4.096-8.722-6.991-11.458s-6.073-4.714-9.534-5.914c-3.46-1.201-6.974-1.818-10.505-1.818h-26.553v70.479h21.716c7.398 0 13.347-1.165 17.867-3.496 4.502-2.33 7.998-5.226 10.505-8.686 2.489-3.46 4.131-7.080 4.943-10.858 0.794-3.778 1.201-7.115 1.201-10.010 0-7.256-0.883-13.33-2.648-18.238zM564.153 158.455c-7.486 7.874-16.896 14.212-28.248 18.944s-24.505 7.115-39.459 7.115h-53.583v-177.894h67.337c2.242 0 5.703 0.282 10.381 0.847 4.661 0.565 9.816 1.836 15.448 3.866 5.632 2.013 11.458 5.032 17.496 9.057s11.458 9.534 16.296 16.543 8.81 15.695 11.953 26.077 4.714 22.899 4.714 37.535c0 10.628-1.854 20.974-5.544 31.020-3.725 10.028-9.304 18.997-16.79 26.889zM543.038 46.698c-8.686-12.553-22.846-18.82-42.478-18.82h-28.725v134.691h16.896c13.842 0 25.106-1.818 33.792-5.438s15.572-8.369 20.639-14.248 8.474-12.429 10.258-19.668c1.766-7.239 2.648-14.566 2.648-21.963 0-23.817-4.343-42.019-13.030-54.554zM628.489 6.621h29.449v80.137h74.346v19.791h-74.346v56.002h81.814v21.963h-111.263zM678.453 554.62c-16.225 0-36.14-2.119-59.286-6.321-32.309 34.286-66.030 84.356-89.83 133.508 23.605 99.381 11.794 113.452 6.585 120.090-5.544 7.062-13.365 18.52-22.263 18.52-3.725 0-13.895-1.695-17.938-3.037-10.169-3.39-15.642-11.229-20.021-21.451-12.482-29.184 4.643-78.936 22.263-117.283-15.060-59.904-40.324-131.602-66.878-189.793-66.913-30.649-102.453-60.751-105.666-89.476-1.165-10.452 1.306-25.794 19.686-39.583 5.032-3.761 10.929-5.756 17.073-5.756v0c15.448 0 31.055 11.829 49.117 37.199 13.171 18.503 27.313 43.732 42.072 75.052 47.281 20.674 105.772 39.353 155.86 49.823 27.895-26.783 52.877-40.342 74.346-40.342 15.819 0 29.378 7.274 39.194 21.027 10.222 14.318 12.553 27.136 6.886 38.135-6.797 13.224-23.552 19.686-51.2 19.686zM362.567 383.841c-8.263 6.338-7.786 10.611-7.609 12.217 1.095 9.816 16.472 27.242 54.201 48.446-28.601-52.824-43.961-59.833-46.592-60.663zM507.339 788.533c0.759 0.247 18.45-19.438 1.695-56.779-25.176 25.759-3.425 56.196-1.695 56.779zM470.846 505.591c17.92 42.708 34.586 89.865 47.21 133.544 19.827-35.628 43.644-70.197 67.478-97.88-37.676-8.845-77.789-21.327-114.688-35.663zM698.615 514.048c-5.438-7.609-17.231-7.786-21.363-7.786-9.41 0-12.924 5.597-27.313 16.666 11.864 1.518 23.058 1.907 31.974 1.907 15.695 0 18.573-2.313 20.745-3.478-0.388-1.254-1.412-3.619-4.043-7.309z" />
<glyph unicode="&#xe905;" glyph-name="file" d="M894.456 824.29h-86.362v86.36c0.002 27.144-22.208 49.35-49.338 49.35h-629.215c-27.142 0-49.348-22.206-49.348-49.35v-789.588c0-27.142 22.206-49.35 49.35-49.35h86.362v-86.362c0-27.142 22.196-49.35 49.35-49.35h419.457c27.13 0 65.524 15.224 85.276 33.816l137.858 129.764c19.776 18.592 35.938 56.024 35.938 83.166l0.024 592.191c-0.002 27.146-22.21 49.354-49.352 49.354zM215.902 774.938v-666.215h-86.36c-6.686 0-12.336 5.65-12.336 12.336v789.59c0 6.686 5.65 12.336 12.336 12.336h629.217c6.674 0 12.336-5.65 12.336-12.336v-86.362h-505.843c-27.154 0-49.35-22.206-49.35-49.35zM882.478 126.528l-137.858-129.754c-2.824-2.654-6.502-5.256-10.562-7.734v113.516c0 8.476 3.418 16.102 9.056 21.776 5.688 5.638 13.312 9.066 21.788 9.066h123.436c-1.914-2.6-3.874-4.994-5.86-6.87zM906.768 182.75c0-3.664-0.668-7.908-1.678-12.336h-140.19c-37.442-0.074-67.78-30.412-67.856-67.856v-128.048c-4.404-0.89-8.648-1.492-12.336-1.492l-419.457-0.002c-6.7 0-12.336 5.65-12.336 12.336v789.588c0 6.686 5.638 12.336 12.336 12.336h629.203c6.686 0 12.336-5.65 12.336-12.336l-0.022-592.191zM758.757 651.569h-357.781c-10.228 0-18.506-8.278-18.506-18.506s8.28-18.506 18.506-18.506h357.781c10.216 0 18.506 8.278 18.506 18.506s-8.29 18.506-18.506 18.506zM758.757 404.821h-357.781c-10.228 0-18.506-8.278-18.506-18.506s8.28-18.506 18.506-18.506h357.781c10.216 0 18.506 8.278 18.506 18.506 0 10.23-8.29 18.506-18.506 18.506zM598.373 281.447h-197.396c-10.228 0-18.506-8.278-18.506-18.506s8.278-18.506 18.506-18.506h197.396c10.216 0 18.494 8.278 18.494 18.506s-8.278 18.506-18.494 18.506zM758.757 528.195h-357.781c-10.228 0-18.506-8.278-18.506-18.506s8.28-18.506 18.506-18.506h357.781c10.216 0 18.506 8.278 18.506 18.506s-8.29 18.506-18.506 18.506z" />
<glyph unicode="&#xe906;" glyph-name="file-1" d="M659.821 954.086c-4.695 4.945-11.133 7.914-17.805 7.914h-399.462c-73.711 0-134.555-60.602-134.555-134.305v-755.384c0-73.711 60.844-134.313 134.555-134.313h542.173c73.711 0 134.555 60.602 134.555 134.313v599.806c0 6.43-2.969 12.609-7.172 17.313zM666.992 874.687l168.938-177.344h-109.821c-32.648 0-59.117 26.219-59.117 58.867zM784.727-12.533h-542.173c-46.25 0-85.086 38.336-85.086 84.844v755.384c0 46.25 38.586 84.836 85.086 84.836h374.969v-156.321c0-60.102 48.484-108.336 108.586-108.336h143.703v-575.564c0-46.508-38.586-84.844-85.086-84.844zM717.204 158.131h-407.126c-13.602 0-24.734-11.125-24.734-24.734 0-13.602 11.133-24.734 24.734-24.734h407.376c13.602 0 24.734 11.133 24.734 24.734 0 13.609-11.133 24.734-24.984 24.734zM495.586 246.928c4.703-4.945 11.133-7.914 18.055-7.914 6.93 0 13.359 2.969 18.055 7.914l144.946 155.578c9.398 9.898 8.656 25.727-1.234 34.875-9.898 9.398-25.727 8.664-34.875-1.234l-102.156-109.571v270.094c0 13.609-11.133 24.734-24.734 24.734s-24.734-11.125-24.734-24.734v-270.094l-101.906 109.571c-9.398 9.891-24.984 10.633-34.875 1.234s-10.633-24.984-1.234-34.875z" />
<glyph unicode="&#xe907;" glyph-name="location" d="M815.14 834.924c-77.526 77.699-184.72 125.768-303.141 125.768-236.497 0-428.216-191.719-428.216-428.216 0-0.243 0-0.487 0.001-0.73v0.038c-0.002-0.518-0.004-1.132-0.004-1.746 0-117.746 47.807-224.325 125.070-301.386l285.227-285.227c4.586-4.587 10.923-7.424 17.922-7.424s13.336 2.837 17.922 7.424l285.218 285.218c77.296 77.71 125.076 184.846 125.076 303.141s-47.78 225.43-125.095 303.16l0.018-0.019zM512 260.188c-151.22 0-274.246 123.028-274.246 274.248s123.026 274.248 274.246 274.248 274.248-123.026 274.248-274.248-123.028-274.248-274.248-274.248z" />
<glyph unicode="&#xe908;" glyph-name="loupe" d="M450.948 960c-248.646 0-450.948-202.302-450.948-450.948 0-248.66 202.302-450.948 450.948-450.948 248.66 0 450.948 202.288 450.948 450.948 0 248.646-202.288 450.948-450.948 450.948zM450.948 141.354c-202.746 0-367.696 164.95-367.696 367.696s164.95 367.698 367.696 367.698 367.696-164.95 367.696-367.696-164.95-367.698-367.696-367.698zM1011.804 7.056l-238.656 238.656c-16.262 16.262-42.598 16.262-58.86 0-16.262-16.248-16.262-42.612 0-58.86l238.656-238.656c8.13-8.13 18.774-12.196 29.43-12.196 10.642 0 21.298 4.066 29.43 12.196 16.262 16.248 16.262 42.612 0 58.86z" />
<glyph unicode="&#xe909;" glyph-name="down-arrow" d="M512 256c-8.184 0-16.376 3.128-22.624 9.376l-320 320c-12.504 12.504-12.504 32.752 0 45.248s32.752 12.504 45.248 0l297.376-297.376 297.376 297.376c12.504 12.504 32.752 12.504 45.248 0s12.504-32.752 0-45.248l-320-320c-6.248-6.248-14.44-9.376-22.624-9.376z" />
<glyph unicode="&#xe90a;" glyph-name="global" d="M512 960c-282.32 0-512-229.68-512-512s229.68-512 512-512 512 229.68 512 512-229.68 512-512 512zM482 708.687c-45.641 1.961-90.82 8.375-133.961 18.805 6.891 16.328 14.367 32.008 22.43 46.867 33.078 60.953 73.688 103.727 111.531 119.219zM482 648.641v-170.641h-187.383c2.641 66.602 13.992 132.719 32.766 192.859 49.75-12.531 101.977-20.117 154.617-22.219zM482 418v-170.641c-52.641-2.102-104.867-9.688-154.617-22.219-18.773 60.141-30.125 126.258-32.766 192.859zM482 187.312v-184.891c-37.844 15.492-78.453 58.266-111.531 119.219-8.063 14.859-15.539 30.539-22.43 46.867 43.141 10.43 88.313 16.844 133.961 18.805zM542 187.312c45.641-1.961 90.82-8.375 133.961-18.805-6.891-16.328-14.367-32.008-22.43-46.867-33.078-60.953-73.688-103.727-111.531-119.219zM542 247.359v170.641h187.383c-2.641-66.602-13.992-132.719-32.766-192.859-49.75 12.531-101.977 20.117-154.617 22.219zM542 478v170.641c52.641 2.102 104.867 9.688 154.617 22.219 18.773-60.141 30.125-126.258 32.766-192.859zM542 708.687v184.891c37.844-15.492 78.453-58.266 111.531-119.219 8.063-14.859 15.539-30.539 22.43-46.867-43.141-10.43-88.32-16.844-133.961-18.805zM706.266 802.977c-15.023 27.688-31.344 52.094-48.547 72.914 59.984-20.484 114.32-53.258 160.016-95.289-26.063-13.961-54.148-26.086-83.695-36.219-8.383 20.359-17.648 39.945-27.773 58.594zM317.734 802.977c-10.125-18.648-19.391-38.234-27.773-58.594-29.547 10.133-57.633 22.266-83.695 36.219 45.695 42.031 100.031 74.805 160.016 95.289-17.203-20.82-33.516-45.219-48.547-72.914zM269.664 687.992c-20.477-65.508-32.516-136.922-35.109-209.992h-173.531c6.422 97.508 43.867 186.68 102.586 257.664 32.586-18.688 68.273-34.672 106.055-47.672zM234.555 418c2.594-73.078 14.633-144.484 35.109-209.992-37.781-13-73.469-28.984-106.055-47.672-58.719 70.984-96.164 160.156-102.586 257.664zM289.961 151.617c8.383-20.359 17.648-39.945 27.773-58.594 15.031-27.688 31.344-52.094 48.547-72.914-59.984 20.484-114.32 53.258-160.008 95.289 26.047 13.953 54.141 26.086 83.688 36.219zM706.266 93.023c10.125 18.648 19.391 38.234 27.773 58.594 29.547-10.133 57.633-22.266 83.695-36.219-45.695-42.031-100.031-74.805-160.016-95.289 17.203 20.82 33.516 45.219 48.547 72.914zM754.336 208.008c20.477 65.508 32.516 136.922 35.109 209.992h173.531c-6.422-97.508-43.867-186.68-102.586-257.664-32.586 18.688-68.273 34.672-106.055 47.672zM789.445 478c-2.594 73.078-14.633 144.484-35.109 209.992 37.781 13 73.469 28.984 106.055 47.672 58.719-70.984 96.164-160.156 102.586-257.664z" />
<glyph unicode="&#xe90b;" glyph-name="caret-down" d="M1004.992 717.007c-12.658 12.669-27.663 18.998-45 18.998h-895.987c-17.344 0-32.339-6.329-45.007-18.998-12.669-12.683-18.998-27.677-18.998-45.011 0-17.33 6.329-32.325 18.998-44.997l447.995-447.995c12.683-12.669 27.677-19.012 45.007-19.012s32.339 6.343 44.997 19.012l447.995 447.999c12.655 12.669 19.008 27.663 19.008 44.997 0 17.33-6.354 32.325-19.008 45.007z" />
<glyph unicode="&#xe90c;" glyph-name="user" d="M504.702 466.735c67.765 0 126.437 24.305 174.39 72.258 47.937 47.945 72.25 106.609 72.25 174.382 0 67.75-24.305 126.422-72.258 174.382-47.953 47.937-106.625 72.242-174.382 72.242-67.773 0-126.437-24.305-174.382-72.25s-72.258-106.617-72.258-174.375c0-67.773 24.312-126.445 72.258-174.39 47.961-47.937 106.633-72.25 174.382-72.25zM372.757 845.321c36.789 36.789 79.945 54.672 131.945 54.672 51.992 0 95.156-17.883 131.953-54.672 36.789-36.797 54.68-79.961 54.68-131.945 0-52-17.891-95.156-54.68-131.953-36.797-36.797-79.961-54.68-131.953-54.68-51.984 0-95.14 17.891-131.945 54.68-36.797 36.789-54.687 79.953-54.687 131.953 0 51.984 17.891 95.148 54.687 131.945zM936.256 172.595c-1.383 19.953-4.18 41.719-8.297 64.703-4.156 23.156-9.508 45.047-15.914 65.055-6.625 20.68-15.617 41.101-26.75 60.672-11.539 20.312-25.102 38-40.32 52.555-15.914 15.227-35.398 27.469-57.93 36.398-22.453 8.883-47.336 13.383-73.953 13.383-10.453 0-20.562-4.289-40.086-17-12.016-7.836-26.070-16.898-41.758-26.922-13.414-8.547-31.586-16.555-54.031-23.805-21.898-7.086-44.133-10.68-66.086-10.68-21.937 0-44.172 3.594-66.086 10.68-22.422 7.242-40.601 15.25-53.992 23.797-15.539 9.93-29.602 18.992-41.797 26.937-19.508 12.711-29.617 17-40.070 17-26.625 0-51.5-4.508-73.945-13.398-22.516-8.914-42.008-21.156-57.937-36.398-15.219-14.562-28.781-32.242-40.312-52.547-11.117-19.57-20.117-39.984-26.742-60.68-6.398-20.008-11.75-41.891-15.906-65.047-4.125-22.953-6.914-44.726-8.297-64.726-1.359-19.555-2.047-39.906-2.047-60.469 0-53.453 16.992-96.726 50.5-128.64 33.094-31.492 76.875-47.461 130.133-47.461h493.062c53.242 0 97.023 15.969 130.125 47.461 33.516 31.891 50.508 75.18 50.508 128.648-0.008 20.633-0.703 40.984-2.070 60.484zM846.444 26.939c-21.867-20.812-50.898-30.93-88.758-30.93h-493.054c-37.867 0-66.898 10.117-88.758 30.922-21.445 20.414-31.867 48.281-31.867 85.172 0 19.187 0.633 38.133 1.898 56.32 1.234 17.844 3.758 37.445 7.5 58.273 3.695 20.57 8.398 39.875 13.992 57.351 5.367 16.758 12.687 33.351 21.766 49.336 8.664 15.234 18.633 28.305 29.633 38.836 10.289 9.852 23.258 17.914 38.539 23.961 14.133 5.594 30.016 8.656 47.258 9.117 2.102-1.117 5.844-3.25 11.906-7.203 12.336-8.039 26.555-17.211 42.273-27.25 17.719-11.297 40.547-21.5 67.82-30.305 27.883-9.016 56.32-13.594 84.547-13.594s56.672 4.578 84.539 13.586c27.297 8.82 50.117 19.016 67.859 30.328 16.086 10.281 29.906 19.187 42.242 27.234 6.062 3.945 9.805 6.086 11.906 7.203 17.25-0.461 33.133-3.523 47.273-9.117 15.273-6.047 28.242-14.117 38.531-23.961 11-10.523 20.969-23.594 29.633-38.844 9.086-15.977 16.414-32.578 21.773-49.32 5.602-17.5 10.312-36.797 14-57.351 3.734-20.867 6.266-40.476 7.5-58.289v-0.016c1.273-18.117 1.914-37.055 1.922-56.297-0.008-36.898-10.43-64.758-31.875-85.164z" />
<glyph unicode="&#xe90d;" glyph-name="bag" d="M775.115 704.139h-45.822v39.663c0.022 119.38-96.736 216.176-216.118 216.198s-216.176-96.736-216.198-216.118c0-0.026 0-0.054 0-0.080v-39.663h-48.090c-66.772-0.076-120.882-54.188-120.954-120.96v-407.057c0.15-132.555 107.57-239.973 240.125-240.123h287.887c132.553 0.15 239.973 107.568 240.123 240.123v407.057c-0.074 66.772-54.182 120.884-120.954 120.96zM367.572 743.802c-0.038 80.393 65.102 145.595 145.493 145.633 80.393 0.038 145.595-65.102 145.633-145.493 0-0.046 0-0.094 0-0.14v-39.663h-291.125v39.663zM825.471 176.121c-0.106-93.583-75.943-169.422-169.528-169.528h-287.885c-93.585 0.106-169.422 75.943-169.53 169.528v407.059c0.034 27.799 22.559 50.328 50.358 50.364h526.236c27.799-0.032 50.326-22.559 50.356-50.358l-0.008-407.065zM693.996 575.084c-19.493 0-35.297-15.803-35.297-35.297v-74.967c-0.010-80.393-65.192-145.555-145.583-145.543-80.377 0.010-145.533 65.166-145.543 145.543v74.967c0 19.493-15.803 35.297-35.297 35.297s-35.297-15.803-35.297-35.297v-74.967c0.022-119.382 96.818-216.14 216.198-216.118 119.35 0.022 216.096 96.768 216.118 216.118v74.967c-0.004 19.493-15.807 35.297-35.301 35.297z" />
<glyph unicode="&#xe90e;" glyph-name="chevron-2" d="M672 800c8.184 0 16.376-3.128 22.624-9.376 12.504-12.504 12.504-32.752 0-45.248l-297.376-297.376 297.376-297.376c12.504-12.504 12.504-32.752 0-45.248s-32.752-12.504-45.248 0l-320 320c-12.504 12.504-12.504 32.752 0 45.248l320 320c6.248 6.248 14.44 9.376 22.624 9.376z" />
<glyph unicode="&#xe90f;" glyph-name="chevron" d="M352 96c-8.184 0-16.376 3.128-22.624 9.376-12.504 12.504-12.504 32.752 0 45.248l297.376 297.376-297.376 297.376c-12.504 12.504-12.504 32.752 0 45.248s32.752 12.504 45.248 0l320-320c12.504-12.504 12.504-32.752 0-45.248l-320-320c-6.248-6.248-14.44-9.376-22.624-9.376z" />
<glyph unicode="&#xe910;" glyph-name="right-arrow" d="M283.092 953.474c-8.84 8.54-22.929 8.293-31.469-0.547-8.329-8.625-8.329-22.297 0-30.92l473.85-473.894-473.894-473.85c-8.84-8.54-9.084-22.627-0.547-31.469 8.54-8.84 22.627-9.084 31.469-0.547 0.186 0.179 0.367 0.361 0.547 0.547l489.607 489.607c8.688 8.69 8.688 22.777 0 31.469l-489.563 489.605zM267.335-63.75c-12.291-0.023-22.272 9.925-22.295 22.216-0.010 5.925 2.343 11.611 6.539 15.796l473.894 473.85-473.894 473.848c-8.702 8.702-8.702 22.81 0 31.513s22.81 8.702 31.513 0l489.607-489.607c8.688-8.69 8.688-22.777 0-31.469l-489.607-489.605c-4.173-4.187-9.844-6.543-15.756-6.543z" />
<glyph unicode="&#xe911;" glyph-name="play-button-arrowhead" d="M217.828 937.422c-92.319 52.956-167.166 9.574-167.166-96.819v-785.131c0-106.499 74.847-149.825 167.166-96.919l686.243 393.556c92.351 52.974 92.351 138.801 0 191.763l-686.243 393.55z" />
<glyph unicode="&#xe912;" glyph-name="tick" d="M1009.004 809.008c-19.994 19.996-52.41 19.996-72.408 0l-613.408-613.414-235.784 235.784c-19.994 19.996-52.41 19.994-72.408 0-19.996-19.994-19.996-52.41 0-72.406l271.988-271.984c19.988-19.994 52.428-19.98 72.408 0l649.612 649.612c19.996 19.994 19.994 52.412 0 72.408z" />
<glyph unicode="&#xe913;" glyph-name="left-arrow-2" d="M9.344 425.376l256-256c5.827-6.027 13.985-9.769 23.017-9.769 17.673 0 32 14.327 32 32 0 9.032-3.742 17.19-9.76 23.009l-201.385 201.385h882.784c17.673 0 32 14.327 32 32s-14.327 32-32 32v0h-882.784l201.376 201.376c6.027 5.827 9.769 13.985 9.769 23.017 0 17.673-14.327 32-32 32-9.032 0-17.19-3.742-23.009-9.76l-256.009-256.009c-5.789-5.791-9.369-13.789-9.369-22.624s3.58-16.833 9.369-22.624v0z" />
<glyph unicode="&#xe914;" glyph-name="right-arrow-2" d="M1014.656 470.624l-256 256c-5.827 6.027-13.985 9.769-23.017 9.769-17.673 0-32-14.327-32-32 0-9.032 3.742-17.19 9.76-23.009l201.385-201.385h-882.784c-17.673 0-32-14.327-32-32s14.327-32 32-32v0h882.784l-201.376-201.376c-6.027-5.827-9.769-13.985-9.769-23.017 0-17.673 14.327-32 32-32 9.032 0 17.19 3.742 23.009 9.76l256.009 256.009c5.789 5.791 9.369 13.789 9.369 22.624s-3.58 16.833-9.369 22.624v0z" />
<glyph unicode="&#xe915;" glyph-name="download" d="M189.92 284.16c22.621 0 40.96-18.338 40.96-40.96v-81.92c0-10.863 4.315-21.279 11.998-28.963v0c7.681-7.68 18.098-11.997 28.962-11.997h491.519c10.863 0 21.279 4.313 28.963 11.997s11.997 18.1 11.997 28.963v81.92c0 22.622 18.338 40.96 40.96 40.96s40.96-18.338 40.96-40.96v-81.92c0-32.588-12.943-63.844-35.992-86.888-23.044-23.044-54.301-35.992-86.888-35.992h-491.519c-32.589 0-63.845 12.943-86.89 35.992-23.043 23.044-35.99 54.301-35.99 86.888v81.92c0 22.622 18.338 40.96 40.96 40.96zM283.837 517.923c15.996 15.996 41.93 15.996 57.926 0l175.836-175.837 175.837 175.837c15.995 15.996 41.931 15.996 57.926 0 15.999-15.995 15.999-41.931 0-57.926l-204.8-204.8c-15.995-15.995-41.931-15.995-57.926 0l-204.8 204.8c-15.996 15.995-15.996 41.931 0 57.926zM517.599 816.64c22.622 0 40.96-18.339 40.96-40.96v-491.52c0-22.622-18.338-40.96-40.96-40.96s-40.96 18.338-40.96 40.96v491.52c0 22.621 18.338 40.96 40.96 40.96z" />
<glyph unicode="&#xe916;" glyph-name="left-quote" d="M327.742 488.033c-25.221 7.261-50.442 10.945-74.975 10.945-37.885 0-69.497-8.658-94.009-19.259 23.631 86.511 80.399 235.785 193.485 252.595 10.473 1.558 19.055 9.13 21.912 19.324l24.716 88.402c2.084 7.476 0.849 15.478-3.416 21.966s-11.117 10.817-18.797 11.869c-8.346 1.139-16.853 1.719-25.285 1.719-135.739 0-270.168-141.679-326.893-344.541-33.298-119.015-43.062-297.945 38.959-410.569 45.898-63.020 112.86-96.673 199.028-100.035 0.354-0.011 0.698-0.021 1.053-0.021 106.318 0 200.596 71.602 229.275 174.107 17.133 61.28 9.388 125.546-21.827 181.003-30.882 54.835-81.742 94.804-143.226 112.495zM993.269 375.528c-30.882 54.846-81.742 94.814-143.226 112.506-25.221 7.261-50.442 10.945-74.964 10.945-37.885 0-69.508-8.658-94.020-19.259 23.631 86.511 80.399 235.785 193.496 252.595 10.473 1.558 19.045 9.13 21.912 19.324l24.716 88.402c2.084 7.476 0.849 15.478-3.416 21.966-4.254 6.488-11.107 10.817-18.797 11.869-8.335 1.139-16.843 1.719-25.285 1.719-135.739 0-270.168-141.679-326.904-344.541-33.288-119.015-43.052-297.945 38.981-410.59 45.887-63.009 112.86-96.673 199.017-100.024 0.354-0.011 0.698-0.021 1.063-0.021 106.308 0 200.596 71.602 229.275 174.107 17.111 61.28 9.356 125.556-21.848 181.003z" />
<glyph unicode="&#xe917;" glyph-name="star" d="M751.328 9.888c-0.014 0-0.032 0-0.049 0-12.732 0-24.717 3.198-35.196 8.835l0.396-0.195-199.456 104.832c-1.454 0.793-3.185 1.259-5.024 1.259s-3.57-0.466-5.080-1.287l0.056 0.028-199.424-104.832c-10.1-5.422-22.098-8.608-34.841-8.608-41.32 0-74.816 33.496-74.816 74.816 0 4.477 0.393 8.862 1.147 13.122l-0.066-0.451 38.080 222.048c0.095 0.538 0.149 1.157 0.149 1.788 0 3.072-1.284 5.843-3.345 7.807l-0.004 0.004-161.216 157.344c-13.953 13.604-22.607 32.585-22.607 53.588 0 37.577 27.703 68.684 63.8 74.011l0.407 0.049 222.816 32.352c3.59 0.536 6.56 2.777 8.1 5.858l0.028 0.062 99.616 202.080c12.478 24.927 37.819 41.741 67.088 41.741s54.61-16.814 66.892-41.31l0.196-0.431 99.68-202.016c1.58-3.132 4.545-5.367 8.067-5.912l0.061-0.008 223.008-32.384c36.489-5.407 64.17-36.512 64.17-74.082 0-20.989-8.639-39.96-22.556-53.551l-0.015-0.014-161.376-157.248c-2.063-1.978-3.345-4.757-3.345-7.834 0-0.624 0.053-1.235 0.154-1.83l-0.009 0.064 38.080-222.048c0.68-3.791 1.069-8.154 1.069-12.608 0-41.287-33.401-74.773-74.655-74.912h-0.013zM512 188.64c0.005 0 0.011 0 0.017 0 12.732 0 24.717-3.198 35.196-8.835l-0.396 0.195 199.424-104.8c1.464-0.852 3.222-1.354 5.098-1.354 2.382 0 4.575 0.811 6.317 2.171l-0.023-0.017c2.743 1.9 4.517 5.031 4.517 8.576 0 0.713-0.072 1.41-0.209 2.083l0.011-0.067-38.112 222.080c-0.677 3.785-1.065 8.142-1.065 12.59 0 21.005 8.638 39.993 22.555 53.604l161.39 157.293c2.005 1.965 3.249 4.701 3.249 7.728 0 5.426-3.996 9.919-9.205 10.697l-0.059 0.007-222.976 32.416c-24.858 3.697-45.437 19.187-56.124 40.497l-0.196 0.431-99.808 202.048c-1.807 3.597-5.468 6.023-9.696 6.023s-7.889-2.425-9.668-5.961l-0.028-0.062-99.616-201.984c-10.889-21.748-31.482-37.241-55.943-40.878l-0.409-0.050-222.944-32.48c-5.271-0.767-9.274-5.255-9.274-10.678 0-3.043 1.26-5.791 3.287-7.751l0.003-0.003 161.344-157.28c13.931-13.625 22.569-32.613 22.569-53.618 0-4.448-0.387-8.805-1.13-13.040l0.065 0.45-38.112-222.080c-0.101-0.555-0.159-1.194-0.159-1.847 0-5.974 4.842-10.816 10.816-10.816 1.862 0 3.614 0.471 5.144 1.299l-0.057-0.028 199.392 104.832c10.092 5.422 22.082 8.608 34.816 8.608v0z" />
<glyph unicode="&#xe918;" glyph-name="star-1" d="M1021.322 567.236c-6.742 20.735-25.133 35.415-46.805 37.376l-295.599 26.836-116.822 273.505c-8.625 20.094-28.25 33.063-50.095 33.063s-41.477-12.969-50.048-33.063l-116.822-273.505-295.646-26.836c-21.672-2-40.024-16.68-46.805-37.376-6.742-20.735-0.516-43.477 15.875-57.853l223.449-195.933-65.884-290.177c-4.82-21.336 3.461-43.399 21.164-56.196 9.516-6.914 20.696-10.367 31.915-10.367 9.641 0 19.289 2.563 27.907 7.719l254.895 152.409 254.848-152.409c18.696-11.172 42.204-10.149 59.868 2.648 17.703 12.797 25.985 34.86 21.164 56.196l-65.884 290.177 223.449 195.933c16.383 14.375 22.618 37.071 15.875 57.853z" />
<glyph unicode="&#xe919;" glyph-name="setting" d="M490.667 95.445h-364.8c-2.261 0-4.437 0.939-6.016 2.517-1.621 1.621-2.517 3.755-2.517 6.016 0 0.043 0 61.909 0 61.909 0 35.413 25.301 66.645 64.299 93.184 69.632 47.531 182.315 77.483 309.035 77.483 17.664 0 32 14.336 32 32 0 17.621-14.336 32-32 32-141.739 0-267.221-35.456-345.131-88.576-59.435-40.533-92.203-92.032-92.203-146.091v-61.909c0-19.2 7.637-37.675 21.248-51.285 13.611-13.568 32.043-21.248 51.285-21.248h364.8c17.664 0.043 32 14.379 32 32.043 0 17.621-14.336 32-32 31.957zM490.667 906.667c-129.536 0-234.667-105.131-234.667-234.667s105.131-234.667 234.667-234.667 234.667 105.131 234.667 234.667-105.131 234.667-234.667 234.667zM490.667 842.667c94.208 0 170.667-76.459 170.667-170.667s-76.459-170.667-170.667-170.667-170.667 76.459-170.667 170.667 76.459 170.667 170.667 170.667zM746.667 365.312c-83.883 0-151.979-68.096-151.979-151.979s68.096-152.021 151.979-152.021 152.021 68.139 152.021 152.021-68.139 151.979-152.021 151.979zM746.667 301.312c48.555 0 88.021-39.424 88.021-87.979s-39.467-88.021-88.021-88.021-88.021 39.467-88.021 88.021 39.467 87.979 88.021 87.979zM778.667 333.355v71.979c0 17.664-14.336 32-32 32s-32-14.336-32-32v-72.021c0-17.621 14.336-32 32-32 17.664 0.043 32 14.379 32 32.043zM854.144 275.541l50.901 50.944c12.501 12.459 12.501 32.768 0 45.227-12.459 12.501-32.768 12.501-45.227 0l-50.944-50.901c-12.459-12.501-12.459-32.768 0-45.269 12.501-12.459 32.768-12.459 45.269 0zM866.645 181.333h72.021c17.664 0 32 14.336 32 32s-14.336 32-32 32h-72.021c-17.621 0-31.957-14.336-31.957-32-0.043-17.664 14.336-32 31.957-32zM808.875 105.856l50.944-50.901c12.459-12.501 32.768-12.501 45.227 0 12.501 12.459 12.501 32.768 0 45.227l-50.901 50.944c-12.501 12.459-32.768 12.459-45.269 0-12.459-12.501-12.459-32.768 0-45.269zM714.667 93.355v-72.021c0-17.664 14.336-32 32-32s32 14.336 32 32v72.021c0 17.621-14.336 31.957-32 32-17.664 0-32-14.379-32-32zM639.189 151.125l-50.901-50.944c-12.501-12.459-12.501-32.768 0-45.227 12.459-12.501 32.768-12.501 45.227 0l50.944 50.901c12.459 12.501 12.459 32.768 0 45.269-12.501 12.459-32.768 12.459-45.269 0zM626.645 245.333h-71.979c-17.664 0-32-14.336-32-32s14.336-32 32-32h71.979c17.664 0 32.043 14.336 32 32 0 17.664-14.336 32-32 32zM684.459 320.811l-50.944 50.901c-12.459 12.501-32.768 12.501-45.227 0-12.501-12.459-12.501-32.768 0-45.227l50.901-50.944c12.501-12.459 32.768-12.459 45.269 0 12.459 12.501 12.459 32.768 0 45.269z" />
<glyph unicode="&#xe91a;" glyph-name="time" d="M512-64c282.282 0 512 229.718 512 512s-229.715 512-512 512-512-229.718-512-512 229.718-512 512-512zM512 891.734c244.735 0 443.734-198.997 443.734-443.734s-198.997-443.734-443.734-443.734-443.734 198.997-443.734 443.734 198.999 443.734 443.734 443.734zM661.334 284.84c6.316-5.119 13.823-7.51 21.333-7.51 10.069 0 19.968 4.438 26.623 12.8 11.777 14.678 9.385 36.182-5.29 47.959l-157.867 126.294v256.683c0 18.774-15.359 34.133-34.133 34.133s-34.133-15.359-34.133-34.133v-273.068c0-10.411 4.78-20.139 12.8-26.623z" />
<glyph unicode="&#xe91b;" glyph-name="left-arrow-3" d="M896 448c0-17.674-14.327-32-32-32h-704c-17.674 0-32 14.326-32 32s14.326 32 32 32h704c17.673 0 32-14.326 32-32zM470.627 137.372c-12.496-12.497-32.758-12.497-45.254 0l-288 288c-12.496 12.496-12.496 32.758 0 45.254l288 288c12.496 12.496 32.758 12.496 45.254 0s12.496-32.758 0-45.254l-265.373-265.373 265.373-265.372c12.496-12.497 12.496-32.758 0-45.255z" />
<glyph unicode="&#xe91c;" glyph-name="right-arrow-3" d="M128 448c0 17.674 14.327 32 32 32h704c17.674 0 32-14.326 32-32s-14.326-32-32-32h-704c-17.673 0-32 14.326-32 32zM553.373 758.628c12.496 12.497 32.758 12.497 45.254 0l288-288c12.496-12.496 12.496-32.758 0-45.254l-288-288c-12.496-12.496-32.758-12.496-45.254 0s-12.496 32.758 0 45.254l265.373 265.373-265.373 265.372c-12.496 12.497-12.496 32.758 0 45.255z" />
<glyph unicode="&#xe91d;" glyph-name="facebook" d="M682.539 789.973h93.483v162.816c-16.128 2.219-71.595 7.211-136.192 7.211-134.784 0-227.115-84.779-227.115-240.597v-143.403h-148.736v-182.016h148.736v-457.984h182.357v457.941h142.72l22.656 182.016h-165.419v125.397c0.043 52.608 14.208 88.619 87.509 88.619z" />
<glyph unicode="&#xe91e;" glyph-name="twitter" d="M1024 765.504c-38.080-16.704-78.656-27.776-120.96-33.152 43.52 25.984 76.736 66.816 92.352 116.032-40.576-24.192-85.376-41.28-133.12-50.816-38.528 41.024-93.44 66.432-153.344 66.432-116.224 0-209.792-94.336-209.792-209.984 0-16.64 1.408-32.64 4.864-47.872-174.528 8.512-328.96 92.16-432.704 219.584-18.112-31.424-28.736-67.392-28.736-106.112 0-72.704 37.44-137.152 93.248-174.464-33.728 0.64-66.816 10.432-94.848 25.856 0-0.64 0-1.472 0-2.304 0-102.016 72.768-186.752 168.192-206.272-17.088-4.672-35.712-6.912-55.040-6.912-13.44 0-27.008 0.768-39.744 3.584 27.2-83.136 104.384-144.256 196.16-146.24-71.424-55.872-162.112-89.536-260.288-89.536-17.216 0-33.728 0.768-50.24 2.88 92.992-59.968 203.2-94.208 322.048-94.208 386.304 0 597.504 320 597.504 597.376 0 9.28-0.32 18.24-0.768 27.136 41.664 29.568 76.672 66.496 105.216 108.992z" />
<glyph unicode="&#xe91f;" glyph-name="instagram" d="M767.994 960h-511.988c-140.784 0-255.994-115.21-255.994-255.994v-512.012c0-140.747 115.21-255.994 255.994-255.994h511.988c140.784 0 255.994 115.247 255.994 255.994v512.012c0 140.784-115.21 255.994-255.994 255.994zM938.652 191.994c0-94.078-76.528-170.658-170.658-170.658h-511.988c-94.090 0-170.658 76.581-170.658 170.658v512.012c0 94.103 76.568 170.658 170.658 170.658h511.988c94.13 0 170.658-76.556 170.658-170.658v-512.012zM853.367 725.343c0-35.345-28.653-63.998-63.998-63.998s-63.998 28.653-63.998 63.998c0 35.345 28.653 63.998 63.998 63.998s63.998-28.653 63.998-63.998zM512 704.006c-141.412 0-255.994-114.595-255.994-255.994 0-141.347 114.582-256.019 255.994-256.019 141.372 0 255.994 114.672 255.994 256.019 0 141.399-114.622 255.994-255.994 255.994zM512 277.329c-94.245 0-170.658 76.413-170.658 170.683s76.413 170.658 170.658 170.658 170.658-76.388 170.658-170.658-76.413-170.683-170.658-170.683z" />
<glyph unicode="&#xe920;" glyph-name="youtube" d="M683.794 483.263l-260.009 148.005c-12.376 7.048-27.575 6.976-39.893-0.182-12.316-7.162-19.895-20.335-19.895-34.581v-296.010c0-14.247 7.578-27.419 19.895-34.581 12.318-7.16 27.515-7.232 39.893-0.182l260.009 148.005c26.793 14.957 26.785 54.576 0 69.526zM443.998 369.291v158.416l139.147-79.209zM1008.629 661.011c-13.006 91.839-86.615 162.298-179.006 171.342-72.981 7.144-187.329 15.661-317.623 15.661s-244.641-8.516-317.623-15.661c-92.391-9.042-166-79.503-179.006-171.34-20.495-145.465-20.495-280.562 0-426.025 13.006-91.839 86.615-162.298 179.006-171.342 72.981-7.144 187.329-15.661 317.623-15.661s244.641 8.516 317.623 15.661c92.391 9.042 166 79.503 179.006 171.34 20.495 145.465 20.495 280.562 0 426.025zM929.415 246.203c-7.812-55.17-52.052-97.497-107.586-102.934-71.211-6.972-182.764-15.283-309.829-15.283s-238.62 8.308-309.829 15.283c-55.534 5.436-99.774 47.764-107.586 102.936-9.688 68.408-14.601 136.301-14.601 201.795s4.912 133.385 14.601 201.797c7.812 55.17 52.052 97.497 107.586 102.934 71.211 6.972 182.764 15.283 309.829 15.283s238.62-8.308 309.829-15.283c55.534-5.436 99.774-47.764 107.586-102.936 19.445-138.041 19.445-265.551 0-403.592z" />
<glyph unicode="&#xe921;" glyph-name="plus-1" d="M512-64c-27.614 0-50 22.386-50 50v0 924c0 27.614 22.386 50 50 50s50-22.386 50-50v0-924c0-27.614-22.386-50-50-50v0zM974 398h-924c-27.614 0-50 22.386-50 50s22.386 50 50 50v0h924c27.614 0 50-22.386 50-50s-22.386-50-50-50v0z" />
<glyph unicode="&#xe922;" glyph-name="remove" d="M981.332 490.668h-938.665c-23.565 0-42.668-19.103-42.668-42.668s19.102-42.668 42.668-42.668h938.668c23.565 0 42.668 19.102 42.668 42.668s-19.105 42.668-42.67 42.668z" />
<glyph unicode="&#xe923;" glyph-name="phone" d="M582.882 959.999c-11.047 0-20-8.953-20-20s8.953-20 20-20c221.179 0 401.117-179.945 401.117-401.117 0-11.047 8.961-20 20-20 11.047 0 20 8.953 20 20 0 243.226-197.883 441.117-441.117 441.117zM883.686 498.875c11.047 0 20 8.961 20 20 0 176.898-143.914 320.812-320.804 320.812-11.047 0-20-8.961-20-20 0-11.047 8.953-20 20-20 154.836 0 280.804-125.969 280.804-280.812 0-11.039 8.953-20 20-20zM743.351 518.875c0-11.039 8.953-20 20-20s20 8.961 20 20c0 110.539-89.93 200.468-200.468 200.468-11.047 0-20-8.953-20-19.992 0-11.047 8.953-20 20-20 88.484 0 160.469-71.984 160.469-160.476zM562.882 579.031c0-11.039 8.953-19.992 20-19.992 22.141 0 40.156-18.016 40.156-40.164 0-11.039 8.953-20 20-20 11.039 0 20 8.961 20 20 0 44.203-35.961 80.156-80.156 80.156-11.047 0-20-8.953-20-20zM374.867 310.641c0-11.047-8.953-20-20-20s-20 8.953-20 20c0 11.039 8.953 20 20 20s20-8.961 20-20zM548.062-39.718c91.070-44.633 200.633-26.062 272.648 45.953l41.352 41.352c22.453 22.43 22.461 58.766 0.008 81.211l-159.781 159.765c-22.414 22.445-58.758 22.477-81.195 0.008l-67.891-67.898c-13.297-13.297-33.82-16.008-48.789-6.453-24.406 15.602-48.148 32.805-70.562 51.133-8.555 6.992-21.148 5.727-28.141-2.82-6.992-8.555-5.727-21.156 2.82-28.141 23.617-19.312 48.625-37.437 74.351-53.875 30.664-19.586 72.133-14.594 98.601 11.875l67.906 67.906c6.789 6.797 17.789 6.812 24.609-0.008l159.789-159.773c6.805-6.812 6.82-17.828 0-24.633l-41.359-41.367c-59.992-59.992-151.117-75.391-226.765-38.32-277.132 135.898-427.913 351.382-505.601 508.226-37.164 75.008-21.734 165.789 38.398 225.906l40.453 40.445c6.781 6.797 17.789 6.82 24.602-0.008l159.804-159.797c6.766-6.758 6.836-17.773-0.016-24.609l-67.891-67.898c-26.469-26.469-31.461-67.937-11.875-98.609 11.539-18.055 23.977-35.867 36.977-52.937 6.687-8.789 19.234-10.484 28.023-3.797s10.492 19.234 3.797 28.031c-12.328 16.195-24.141 33.102-35.094 50.234-9.555 14.977-6.844 35.5 6.453 48.797l67.883 67.883c22.445 22.414 22.469 58.766 0.016 81.195l-159.789 159.781c-22.406 22.445-58.758 22.477-81.187 0.008l-40.437-40.437c-72.281-72.258-90.75-181.547-45.961-271.945 80.445-162.398 236.617-385.539 523.843-526.382z" />
<glyph unicode="&#xe924;" glyph-name="mail" d="M1009.56 553.341c0.105 1.030 0.12 2.067 0.057 3.104 0.362 5.972-2.073 12.021-7.099 16.044l-118.973 95.218v46.998c0 44.176-35.939 80.115-80.115 80.115h-78.708l-197.45 158.024c-0.007 0.009-0.012 0.018-0.018 0.027-3.845 4.804-9.542 7.235-15.254 7.126-5.711 0.109-11.408-2.321-15.252-7.126-0.007-0.009-0.012-0.018-0.019-0.027l-197.448-158.024h-78.709c-44.176 0-80.115-35.939-80.115-80.115v-46.998l-118.973-95.217c-5.027-4.022-7.461-10.072-7.099-16.044-0.063-1.036-0.049-2.074 0.056-3.104-0.068-0.655-0.105-1.319-0.105-1.992v-525.132c0-49.746 42.712-90.216 95.212-90.216h804.906c52.499 0 95.212 40.471 95.212 90.216v525.132c0.001 0.673-0.036 1.337-0.105 1.992zM883.545 618.898l78.033-62.452-78.033-62.453zM512 916.257l151.735-121.437h-303.469zM178.564 714.705c0 23.162 18.845 42.007 42.007 42.007h582.859c23.162 0 42.007-18.845 42.007-42.007v-56.391c0-0.018-0.001-0.036 0-0.054v-194.767l-333.436-266.861-333.436 266.861zM140.456 618.898v-124.905l-78.033 62.453zM52.443 26.216v489.406l310.119-248.199-304.605-263.525c-3.531 6.769-5.514 14.335-5.514 22.318zM914.454-25.892h-804.906c-8.091 0-15.788 1.552-22.768 4.334l306.040 264.767 103.909-83.163c0.007-0.008 0.012-0.017 0.019-0.026 3.763-4.701 9.299-7.147 14.888-7.147 0.121 0 0.243 0.012 0.365 0.014 0.122-0.002 0.244-0.014 0.366-0.014 5.588 0 11.125 2.446 14.888 7.147 0.007 0.008 0.012 0.017 0.018 0.026l103.909 83.163 306.040-264.767c-6.98-2.781-14.678-4.334-22.768-4.334zM971.557 26.216c0-7.983-1.983-15.549-5.514-22.319l-304.605 263.525 310.119 248.199zM315.905 576.423h394.203c10.523 0 19.054 8.53 19.054 19.054s-8.53 19.054-19.054 19.054h-394.203c-10.524 0-19.054-8.53-19.054-19.054s8.53-19.054 19.054-19.054zM729.161 480.838c0 10.524-8.53 19.054-19.054 19.054h-394.203c-10.524 0-19.054-8.53-19.054-19.054s8.53-19.054 19.054-19.054h394.203c10.524 0 19.054 8.53 19.054 19.054z" />
<glyph unicode="&#xe925;" glyph-name="phone-call" d="M809.283 325.668c-20.964 21.828-46.25 33.499-73.049 33.499-26.583 0-52.085-11.454-73.914-33.283l-68.295-68.078c-5.619 3.026-11.238 5.835-16.641 8.645-7.78 3.89-15.129 7.564-21.396 11.454-63.972 40.631-122.109 93.581-177.869 162.092-27.015 34.147-45.17 62.892-58.353 92.068 17.722 16.209 34.147 33.067 50.14 49.276 6.051 6.051 12.103 12.319 18.154 18.37 45.386 45.386 45.386 104.171 0 149.557l-59.001 59.001c-6.7 6.7-13.616 13.616-20.099 20.532-12.967 13.4-26.583 27.231-40.631 40.199-20.964 20.748-46.034 31.77-72.401 31.77s-51.869-11.022-73.482-31.77c-0.216-0.216-0.216-0.216-0.432-0.432l-73.482-74.13c-27.664-27.664-43.441-61.379-46.899-100.497-5.187-63.108 13.4-121.893 27.664-160.363 35.012-94.445 87.313-181.975 165.333-275.772 94.662-113.032 208.558-202.29 338.664-265.182 49.708-23.557 116.058-51.437 190.188-56.192 4.539-0.216 9.293-0.432 13.616-0.432 49.924 0 91.852 17.938 124.703 53.598 0.216 0.432 0.648 0.648 0.864 1.081 11.238 13.616 24.206 25.935 37.821 39.118 9.293 8.861 18.803 18.154 28.096 27.88 21.396 22.261 32.634 48.195 32.634 74.778 0 26.799-11.454 52.518-33.283 74.13l-118.651 119.083zM886.654 98.092c-0.216 0-0.216-0.216 0 0-8.429-9.077-17.074-17.29-26.367-26.367-14.048-13.4-28.312-27.448-41.712-43.224-21.828-23.341-47.547-34.363-81.262-34.363-3.242 0-6.7 0-9.942 0.216-64.188 4.106-123.838 29.176-168.575 50.573-122.325 59.217-229.738 143.289-318.996 249.837-73.698 88.826-122.974 170.953-155.608 259.131-20.099 53.814-27.448 95.742-24.206 135.293 2.161 25.286 11.887 46.25 29.825 64.188l73.698 73.698c10.59 9.942 21.828 15.345 32.851 15.345 13.616 0 24.638-8.213 31.554-15.129 0.216-0.216 0.432-0.432 0.648-0.648 13.183-12.319 25.719-25.070 38.902-38.686 6.7-6.916 13.616-13.832 20.532-20.964l59.001-59.001c22.909-22.909 22.909-44.089 0-66.998-6.268-6.268-12.319-12.535-18.587-18.587-18.154-18.587-35.444-35.876-54.247-52.734-0.432-0.432-0.864-0.648-1.081-1.081-18.587-18.587-15.129-36.741-11.238-49.060 0.216-0.648 0.432-1.297 0.648-1.945 15.345-37.173 36.957-72.185 69.807-113.896l0.216-0.216c59.65-73.482 122.541-130.754 191.917-174.627 8.861-5.619 17.938-10.158 26.583-14.48 7.78-3.89 15.129-7.564 21.396-11.454 0.864-0.432 1.729-1.081 2.593-1.513 7.348-3.674 14.264-5.403 21.396-5.403 17.938 0 29.176 11.238 32.851 14.912l73.914 73.914c7.348 7.348 19.019 16.209 32.634 16.209 13.4 0 24.422-8.429 31.122-15.777 0.216-0.216 0.216-0.216 0.432-0.432l119.083-119.083c22.261-22.044 22.261-44.737 0.216-67.646zM553.394 716.417c56.624-9.509 108.061-36.309 149.124-77.372s67.646-92.5 77.372-149.124c2.377-14.264 14.696-24.206 28.744-24.206 1.729 0 3.242 0.216 4.971 0.432 15.993 2.593 26.583 17.722 23.99 33.715-11.671 68.511-44.089 130.97-93.581 180.462s-111.951 81.91-180.462 93.581c-15.993 2.593-30.905-7.997-33.715-23.773s7.564-31.122 23.557-33.715zM1022.811 508.292c-19.235 112.816-72.401 215.474-154.095 297.168s-184.352 134.86-297.168 154.095c-15.777 2.81-30.689-7.997-33.499-23.773-2.593-15.993 7.997-30.905 23.99-33.715 100.713-17.074 192.565-64.837 265.614-137.67 73.049-73.049 120.596-164.901 137.67-265.614 2.377-14.264 14.696-24.206 28.744-24.206 1.729 0 3.242 0.216 4.971 0.432 15.777 2.377 26.583 17.506 23.773 33.283z" />
<glyph unicode="&#xe926;" glyph-name="phone-call-1" d="M424.024 360.024c-97.739 97.739-119.808 195.478-124.787 234.637-1.391 10.828 2.335 21.686 10.081 29.378l79.095 79.060c11.635 11.628 13.7 29.749 4.979 43.697l-125.934 195.549c-9.648 15.444-29.459 21.018-45.745 12.871l-202.169-95.214c-13.17-6.485-20.916-20.477-19.421-35.081 10.593-100.634 54.466-348.019 297.578-591.148s490.461-286.985 591.148-297.578c14.603-1.495 28.596 6.251 35.081 19.421l95.214 202.169c8.117 16.251 2.58 36.008-12.8 45.674l-195.549 125.899c-13.939 8.73-32.060 6.68-43.697-4.943l-79.060-79.095c-7.692-7.746-18.551-11.472-29.378-10.081-39.159 4.979-136.898 27.048-234.637 124.787zM812.138 412.69c-19.501 0-35.31 15.809-35.31 35.31-0.165 146.192-118.636 264.662-264.828 264.828-19.501 0-35.31 15.809-35.31 35.31s15.809 35.31 35.31 35.31c185.178-0.204 335.244-150.27 335.448-335.448 0-19.501-15.809-35.31-35.31-35.31zM988.69 412.69c-19.501 0-35.31 15.809-35.31 35.31-0.272 243.654-197.725 441.107-441.379 441.379-19.501 0-35.31 15.809-35.31 35.31s15.809 35.31 35.31 35.31c282.641-0.311 511.689-229.359 512-512 0-9.365-3.72-18.346-10.342-24.968s-15.603-10.342-24.968-10.342z" />
<glyph unicode="&#xe927;" glyph-name="question-mark" d="M527.028 331.74h-94.076c-11.046 0-20-8.956-20-20v-107.724c0-11.044 8.954-20 20-20h94.076c11.044 0 20 8.956 20 20v107.724c0 11.046-8.956 20-20 20zM507.028 224.016h-54.076v67.724h54.076zM643.658 702.956c-16.34 13.074-35.102 22.738-55.774 28.732-91.21 26.376-191.718-7.83-229.35-96.114-3.708-8.702-0.814-18.814 6.94-24.234l73.97-51.708c9.056-6.328 21.518-4.12 27.848 4.93 3.362 4.804 7.218 10.342 11.54 16.588 7.060 10.188 16.796 17.864 27.826 23.196 4.708 2.28 10.198 3.388 16.78 3.388 10.392 0 19.32-2.986 27.286-9.124 6.538-5.042 9.454-11.564 9.454-21.148 0-7.116-2.106-13.168-6.626-19.044-18.196-23.646-46.148-36.664-74.070-51.682-14.302-7.706-26.16-16.508-35.244-26.166-9.224-9.804-16.414-20.548-21.362-31.92-4.768-10.93-8.042-22.456-9.724-34.25-1.564-10.942-2.358-22.526-2.358-34.43 0-11.044 8.954-20 20-20h94.798c11.044 0 20 8.956 20 20 0 5.75 1.314 10.336 4.030 14.034 3.846 5.246 9.158 10.148 15.792 14.57 21.83 14.562 31.894 16.488 58.684 34.336 24.442 15.448 43.312 33.896 56.094 54.832 13.142 21.534 19.806 48.116 19.806 79.004 0 28.834-5.298 54.068-15.758 75.020-10.366 20.718-24.022 37.942-40.582 51.19zM646.050 518.576c-9.58-15.692-24.216-29.816-43.506-41.978-3.040-1.904-12.892-8.844-28.974-17.070-10.958-5.612-21.168-11.56-30.344-17.676-10.542-7.028-19.244-15.172-25.856-24.194-3.958-5.39-6.926-11.304-8.894-17.694h-56.764c3.144 33.298 15.262 54.596 46.728 71.546 32.858 17.676 63.57 32.308 86.818 62.516 9.898 12.874 14.918 27.486 14.918 43.432 0 21.93-8.652 40.196-25.034 52.83-15.024 11.574-32.42 17.442-51.706 17.442-12.578 0-24.086-2.484-34.2-7.38-29.536-14.278-41.572-34.536-43.306-36.452l-43.462 30.382c10.604 18.502 25.114 33.158 44.022 44.538 39.024 23.48 87.030 26.948 130.268 14.446 15.59-4.52 29.692-11.768 41.91-21.544 12.012-9.61 22.040-22.346 29.792-37.84 7.656-15.338 11.54-34.562 11.54-57.138 0-23.43-4.694-43-13.95-58.166zM512 892.014c-243.176 0-440-196.792-440-440 0-85.116 24.212-167.314 70.122-238.386l-61.096-183.288c-5.114-15.342 9.274-30.236 24.856-25.44l196.174 60.362c64.13-34.862 136.52-53.246 209.944-53.246 243.176 0 440 196.792 440 440 0 243.172-196.792 439.998-440 439.998zM512 52.016c-69.416 0-137.802 18.066-197.768 52.246-4.786 2.73-10.498 3.368-15.786 1.74l-167.182-51.442 51.886 155.66c1.97 5.908 1.074 12.396-2.422 17.55-44.962 66.288-68.728 143.83-68.728 224.244 0 220.56 179.44 400 400 400s400-179.44 400-400c0-220.558-179.44-399.998-400-399.998z" />
<glyph unicode="&#xe928;" glyph-name="checklist" d="M418.336 258.752c-10.789 0.035-20.524 4.514-27.478 11.701l-0.010 0.011-124.8 129.888c-6.586 6.845-10.642 16.165-10.642 26.432 0 21.067 17.079 38.146 38.146 38.146 10.8 0 20.552-4.488 27.492-11.702l0.012-0.012 98.336-102.4 284.608 275.68c6.841 6.568 16.149 10.613 26.4 10.613 21.066 0 38.144-17.078 38.144-38.144 0-10.69-4.397-20.352-11.481-27.278l-0.007-0.007-312.256-302.176c-6.83-6.647-16.168-10.747-26.463-10.752h-0.001zM893.536-48h-763.072c-63.18 0.091-114.373 51.284-114.464 114.455v763.081c0.091 63.18 51.284 114.373 114.455 114.464h763.081c63.18-0.091 114.373-51.284 114.464-114.455v-763.081c-0.091-63.18-51.284-114.373-114.455-114.464h-0.009zM130.464 867.68c-21.052-0.036-38.108-17.092-38.144-38.141v-763.075c0.036-21.052 17.092-38.108 38.141-38.144h763.075c21.052 0.036 38.108 17.092 38.144 38.141v763.075c-0.036 21.052-17.092 38.108-38.141 38.144h-0.003z" />
<glyph unicode="&#xe929;" glyph-name="star-2" d="M1024 564.368l-372.078 24.462-140.126 352.032-140.126-352.032-371.67-24.462 285.068-242.052-93.544-367.178 320.272 202.442 320.274-202.442-93.544 367.178z" />
<glyph unicode="&#xe92a;" glyph-name="check" d="M903.823 636.771c-10.417 10.417-27.292 10.417-37.709 0l-425.375-425.371-225.115 225.105c-10.417 10.417-27.292 10.417-37.709 0-10.417-10.412-10.417-27.297 0-37.709l243.969-243.964c5.209-5.209 12.031-7.812 18.854-7.812s13.646 2.604 18.854 7.812l444.229 444.229c10.417 10.412 10.417 27.297 0 37.709z" />
<glyph unicode="&#xe92b;" glyph-name="maps-and-flags" d="M512 960c-282.982 0-512-228.994-512-512 0-282.982 228.994-512 512-512 282.982 0 512 228.994 512 512 0 282.982-228.994 512-512 512zM783.028 587.87l-328.010-328.010c-13.324-13.324-34.944-13.328-48.272 0l-165.774 165.774c-13.33 13.33-13.33 34.942 0 48.272 13.328 13.33 34.942 13.33 48.272 0l141.64-141.638 303.876 303.876c13.328 13.33 34.942 13.33 48.272 0 13.326-13.334 13.326-34.944-0.004-48.274z" />
<glyph unicode="&#xe92c;" glyph-name="behance" d="M421.283 478.723c21.25 10.689 37.315 22.594 48.324 35.459 19.586 23.17 29.25 53.892 29.25 91.976 0 37.059-9.665 68.742-28.994 95.304-32.259 43.268-86.855 65.413-164.045 66.565h-305.817v-624.243h285.143c32.131 0 61.893 2.752 89.415 8.385 27.522 5.696 51.332 16.129 71.494 31.363 17.921 13.249 32.899 29.698 44.804 49.092 18.818 29.314 28.226 62.533 28.226 99.528 0 35.843-8.257 66.373-24.642 91.464-16.577 25.090-40.899 43.46-73.158 55.109zM126.154 659.601h137.739c30.274 0 55.237-3.264 74.822-9.729 22.658-9.409 33.987-28.546 33.987-57.733 0-26.178-8.641-44.484-25.73-54.788-17.217-10.305-39.555-15.489-66.949-15.489h-153.869v137.739zM343.964 263.089c-15.233-7.361-36.675-11.009-64.133-11.009h-153.677v166.478h155.789c27.138-0.192 48.26-3.776 63.365-10.497 26.882-12.161 40.259-34.435 40.259-67.013 0-38.403-13.825-64.261-41.603-77.958zM654.39 738.904h271.19v-77.702h-271.19v77.702zM1019.796 432.255c-5.632 36.163-18.049 67.974-37.379 95.432-21.186 31.107-48.068 53.892-80.775 68.294-32.579 14.465-69.254 21.698-110.089 21.634-68.55 0-124.234-21.442-167.31-64.005-42.948-42.692-64.453-104.073-64.453-184.079 0-85.319 23.746-146.956 71.494-184.783 47.556-37.891 102.472-56.773 164.814-56.773 75.462 0 134.155 22.466 176.078 67.27 26.818 28.29 41.987 56.133 45.316 83.463h-124.938c-7.233-13.505-15.617-24.066-25.218-31.747-17.409-14.081-40.067-21.122-67.846-21.122-26.434 0-48.836 5.824-67.526 17.409-30.851 18.562-46.98 51.076-49.028 97.352h340.956c0.512 39.875-0.768 70.534-4.096 91.656zM686.008 420.286c4.48 30.018 15.361 53.828 32.643 71.43 17.281 17.537 41.731 26.37 73.030 26.434 28.866 0 52.996-8.257 72.646-24.834 19.394-16.705 30.338-40.963 32.579-73.030h-210.897z" />
<glyph unicode="&#xe92d;" glyph-name="dribbble" d="M697.771-28.587c0.853 0.256 1.664 0.597 2.517 0.896 521.173 207.061 377.003 987.691-188.288 987.691-283.691 0-512-231.253-512-512 0-355.285 359.851-608.811 697.771-476.587zM225.323 104.149c36.352 61.099 153.984 233.472 354.773 292.949 41.984-107.051 71.424-231.936 74.325-373.547-152.149-51.157-312.619-16.725-429.099 80.597zM717.355 50.261c-5.589 136.064-33.365 256.725-72.96 361.259 88.832 13.867 191.659 4.608 308.267-42.112-24.789-139.136-113.749-256.085-235.307-319.147zM959.36 435.584c-128.427 48.256-241.621 54.272-339.584 35.584-15.147 34.133-31.061 66.944-47.915 97.152 150.315 60.032 239.147 133.205 278.912 171.947 70.187-81.237 111.872-186.411 108.587-304.683zM805.333 785.835c-36.181-34.432-121.387-103.979-267.093-160.853-71.424 112.981-147.797 192.683-196.181 237.312 154.795 63.744 333.312 36.523 463.275-76.459zM280.875 831.019c36.523-32.128 116.693-109.269 194.048-228.565-106.24-34.219-239.445-59.349-401.451-62.891 25.771 123.477 102.741 228.096 207.403 291.456zM65.365 475.307c181.333 2.944 328.107 31.573 444.117 70.315 16.043-28.117 31.275-58.752 45.909-90.581-202.027-64.341-328.277-230.443-376.619-305.451-77.995 87.040-121.003 200.619-113.408 325.717z" />
<glyph unicode="&#xe92e;" glyph-name="linkedin" d="M1023.744-64v0.043h0.256v375.552c0 183.723-39.552 325.248-254.336 325.248-103.253 0-172.544-56.661-200.832-110.379h-2.987v93.227h-203.648v-683.648h212.053v338.517c0 89.131 16.896 175.317 127.275 175.317 108.757 0 110.379-101.717 110.379-181.035v-332.843zM16.896 619.648h212.309v-683.648h-212.309zM122.965 960c-67.883 0-122.965-55.083-122.965-122.965s55.083-124.117 122.965-124.117 122.965 56.235 122.965 124.117c-0.043 67.883-55.125 122.965-122.965 122.965z" />
<glyph unicode="&#xe92f;" glyph-name="checklist-1" d="M800.788 651.934c5.791-5.791 9.372-13.791 9.372-22.627s-3.582-16.836-9.372-22.627l-362.616-362.616c-5.791-5.791-13.791-9.372-22.627-9.372s-16.836 3.582-22.627 9.372l-169.706 169.708c-5.709 5.777-9.236 13.721-9.236 22.49 0 17.673 14.327 32 32 32 8.768 0 16.713-3.527 22.493-9.239l147.075-147.077 340 339.988c5.79 5.788 13.788 9.367 22.622 9.367s16.832-3.58 22.622-9.367v0zM1024 448c-0.001-282.769-229.231-511.999-512-511.999-141.385 0-269.384 57.307-362.038 149.961v0c-93.070 92.723-150.66 221.004-150.66 362.736 0 282.77 229.23 512 512 512 141.732 0 270.013-57.589 362.72-150.644l0.016-0.016c92.635-92.144 149.964-219.702 149.964-360.65 0-0.488-0.001-0.976-0.002-1.463v0.075zM960 448c-0.203 247.352-200.768 447.791-448.148 447.791-123.627 0-235.563-50.059-316.642-131.013l0.006 0.006c-81.072-81.072-131.216-193.072-131.216-316.784 0-247.424 200.577-448 448-448 123.712 0 235.712 50.144 316.784 131.216v0c81.055 80.627 131.218 192.24 131.218 315.57 0 0.427-0.001 0.854-0.002 1.28v-0.066z" />
<glyph unicode="&#xe930;" glyph-name="hamburger" d="M960 736c0-17.673-14.327-32-32-32v0h-832c-17.673 0-32 14.327-32 32s14.327 32 32 32v0h832c17.673 0 32-14.327 32-32v0zM800 480h-704c-17.673 0-32-14.327-32-32s14.327-32 32-32v0h704c17.673 0 32 14.327 32 32s-14.327 32-32 32v0zM512 192h-416c-17.673 0-32-14.327-32-32s14.327-32 32-32v0h416c17.673 0 32 14.327 32 32s-14.327 32-32 32v0z" />
<glyph unicode="&#xe931;" glyph-name="menu" d="M85.333 490.667h853.333v-85.333h-853.333zM85.333 746.667h853.333v-85.333h-853.333zM85.333 234.667h853.333v-85.333h-853.333z" />
<glyph unicode="&#xe932;" glyph-name="menu-1" d="M213.333 960h-170.667c-23.552 0-42.667-19.115-42.667-42.667v-170.667c0-23.552 19.115-42.667 42.667-42.667h170.667c23.552 0 42.667 19.115 42.667 42.667v170.667c0 23.552-19.115 42.667-42.667 42.667zM213.333 576h-170.667c-23.552 0-42.667-19.115-42.667-42.667v-170.667c0-23.552 19.115-42.667 42.667-42.667h170.667c23.552 0 42.667 19.115 42.667 42.667v170.667c0 23.552-19.115 42.667-42.667 42.667zM213.333 192h-170.667c-23.552 0-42.667-19.115-42.667-42.667v-170.667c0-23.552 19.115-42.667 42.667-42.667h170.667c23.552 0 42.667 19.115 42.667 42.667v170.667c0 23.552-19.115 42.667-42.667 42.667zM597.333 960h-170.667c-23.552 0-42.667-19.115-42.667-42.667v-170.667c0-23.552 19.115-42.667 42.667-42.667h170.667c23.552 0 42.667 19.115 42.667 42.667v170.667c0 23.552-19.115 42.667-42.667 42.667zM597.333 576h-170.667c-23.552 0-42.667-19.115-42.667-42.667v-170.667c0-23.552 19.115-42.667 42.667-42.667h170.667c23.552 0 42.667 19.115 42.667 42.667v170.667c0 23.552-19.115 42.667-42.667 42.667zM597.333 192h-170.667c-23.552 0-42.667-19.115-42.667-42.667v-170.667c0-23.552 19.115-42.667 42.667-42.667h170.667c23.552 0 42.667 19.115 42.667 42.667v170.667c0 23.552-19.115 42.667-42.667 42.667zM981.333 960h-170.667c-23.552 0-42.667-19.115-42.667-42.667v-170.667c0-23.552 19.115-42.667 42.667-42.667h170.667c23.552 0 42.667 19.115 42.667 42.667v170.667c0 23.552-19.115 42.667-42.667 42.667zM981.333 576h-170.667c-23.552 0-42.667-19.115-42.667-42.667v-170.667c0-23.552 19.115-42.667 42.667-42.667h170.667c23.552 0 42.667 19.115 42.667 42.667v170.667c0 23.552-19.115 42.667-42.667 42.667zM981.333 192h-170.667c-23.552 0-42.667-19.115-42.667-42.667v-170.667c0-23.552 19.115-42.667 42.667-42.667h170.667c23.552 0 42.667 19.115 42.667 42.667v170.667c0 23.552-19.115 42.667-42.667 42.667z" />
<glyph unicode="&#xe933;" glyph-name="zoom-in" d="M560.333 573.337h-115.999v115.999c0 10.672-8.661 19.333-19.333 19.333s-19.333-8.661-19.333-19.333v-115.999h-115.999c-10.672 0-19.333-8.661-19.333-19.333s8.661-19.333 19.333-19.333h115.999v-115.999c0-10.672 8.661-19.333 19.333-19.333s19.333 8.661 19.333 19.333v115.999h115.999c10.672 0 19.333 8.661 19.333 19.333s-8.661 19.333-19.333 19.333zM999.602-31.269l-287.271 298.755c73.273 73.485 118.667 174.791 118.667 286.517 0 223.878-182.118 405.996-405.996 405.996s-405.996-182.118-405.996-405.996 182.118-405.996 405.996-405.996c98.27 0 188.46 35.128 258.755 93.418l287.967-299.49c3.789-3.963 8.855-5.935 13.939-5.935 4.833 0 9.647 1.798 13.398 5.394 7.695 7.405 7.927 19.642 0.541 27.337zM57.671 554.004c0 202.553 164.776 367.33 367.33 367.33s367.33-164.776 367.33-367.33-164.776-367.33-367.33-367.33-367.33 164.776-367.33 367.33z" />
<glyph unicode="&#xe934;" glyph-name="link" d="M248.432-64c-65.416-0.002-127.192 25.92-174.854 73.58-49.906 49.908-75.974 115.298-73.406 184.128 2.654 71.086 34.768 139.372 92.872 197.476l104.616 105.042c15.588 15.654 40.914 15.706 56.568 0.116 15.652-15.588 15.706-40.916 0.116-56.568l-104.672-105.102c-84.822-84.822-92.826-195.22-19.522-268.523 73.306-73.31 183.704-65.304 268.463 19.464l143.774 143.774c43.578 43.576 67.61 93.334 69.496 143.89 1.73 46.34-16.038 90.582-50.030 124.574-11.39 11.388-23.992 21.052-37.458 28.722-19.196 10.934-25.894 35.36-14.96 54.554 10.936 19.196 35.362 25.892 54.554 14.96 19.676-11.208 37.99-25.228 54.434-41.67 49.906-49.906 75.974-115.296 73.406-184.126-2.654-71.086-34.768-139.374-92.872-197.476l-143.774-143.774c-58.106-58.104-126.39-90.216-197.476-92.872-3.096-0.11-6.194-0.168-9.276-0.168zM514.567 314.871c10.934 19.196 4.234 43.622-14.96 54.554-13.466 7.67-26.070 17.334-37.458 28.72-73.304 73.306-65.3 183.704 19.464 268.467l143.774 143.772c84.766 84.762 195.162 92.768 268.463 19.464 73.304-73.304 65.3-183.702-19.522-268.523l-104.672-105.102c-15.59-15.652-15.538-40.98 0.116-56.568 15.652-15.59 40.978-15.534 56.568 0.116l104.616 105.044c58.104 58.104 90.216 126.39 92.872 197.474 2.568 68.83-23.5 134.222-73.406 184.128-49.908 49.908-115.332 75.972-184.128 73.408-71.086-2.654-139.372-34.768-197.474-92.872l-143.776-143.772c-58.104-58.104-90.216-126.39-92.872-197.474-2.568-68.83 23.5-134.222 73.406-184.13 16.442-16.44 34.756-30.458 54.434-41.668 6.248-3.558 13.048-5.25 19.76-5.25 13.906 0.002 27.418 7.266 34.794 20.212z" />
<glyph unicode="&#xe935;" glyph-name="zoom-in-1" d="M1012.282 4.298l-288.904 288.904c131.628 160.15 122.672 397.888-26.902 547.46-159.118 159.118-418.020 159.118-577.138 0s-159.118-418.020 0-577.138c149.532-149.532 387.24-158.586 547.46-26.902l288.904-288.904c15.624-15.624 40.954-15.624 56.578 0 15.626 15.626 15.626 40.956 0.002 56.58zM639.898 320.104c-127.92-127.92-336.060-127.918-463.98 0-127.92 127.92-127.92 336.060 0 463.98 127.916 127.914 336.056 127.924 463.98 0 127.92-127.92 127.92-336.060 0-463.98zM603.794 592.102h-155.88v155.88c0 22.096-17.912 40.008-40.008 40.008s-40.008-17.912-40.008-40.008v-155.88h-155.88c-22.096 0-40.008-17.912-40.008-40.008s17.912-40.008 40.008-40.008h155.88v-155.88c0-22.096 17.912-40.008 40.008-40.008s40.008 17.912 40.008 40.008v155.88h155.88c22.096 0 40.008 17.912 40.008 40.008s-17.912 40.008-40.008 40.008z" />
<glyph unicode="&#xe936;" glyph-name="close" d="M73.44 9.44c5.792-5.798 13.797-9.385 22.64-9.385s16.848 3.587 22.64 9.385v0l393.28 393.28 393.44-393.28c5.794-5.794 13.799-9.378 22.64-9.378 17.683 0 32.018 14.335 32.018 32.018 0 8.841-3.584 16.846-9.378 22.64l-393.44 393.28 393.28 393.44c5.794 5.794 9.378 13.799 9.378 22.64 0 17.683-14.335 32.018-32.018 32.018-8.841 0-16.846-3.584-22.64-9.378v0l-393.28-393.44-393.44 393.28c-5.559 4.783-12.847 7.695-20.815 7.695-17.673 0-32-14.327-32-32 0-7.968 2.912-15.255 7.73-20.857l-0.035 0.042 393.28-393.44-393.28-393.44c-5.751-5.784-9.305-13.757-9.305-22.56s3.555-16.776 9.307-22.562l-0.002 0.002z" />
<glyph unicode="&#xe937;" glyph-name="shopping-cart" d="M329.922 297.992h0.047c0.039 0 0.078 0.008 0.117 0.008h543.914c13.391 0 25.164 8.883 28.844 21.758l120 420c2.586 9.055 0.773 18.789-4.891 26.305-5.672 7.516-14.539 11.937-23.953 11.937h-733.265l-21.445 96.508c-3.055 13.727-15.227 23.492-29.289 23.492h-180c-16.57 0-30-13.43-30-30s13.43-30 30-30h155.937c3.797-17.102 102.625-461.836 108.312-487.422-31.883-13.859-54.25-45.648-54.25-82.578 0-49.625 40.375-90 90-90h544c16.57 0 30 13.43 30 30s-13.43 30-30 30h-544c-16.539 0-30 13.461-30 30 0 16.516 13.414 29.953 29.922 29.992zM954.226 718l-102.859-360h-497.304l-80 360zM300 88c0-49.625 40.375-90 90-90s90 40.375 90 90-40.375 90-90 90-90-40.375-90-90zM390 118c16.539 0 30-13.461 30-30s-13.461-30-30-30-30 13.461-30 30 13.461 30 30 30zM724 88c0-49.625 40.375-90 90-90s90 40.375 90 90-40.375 90-90 90-90-40.375-90-90zM814 118c16.539 0 30-13.461 30-30s-13.461-30-30-30-30 13.461-30 30 13.461 30 30 30z" />
<glyph unicode="&#xe938;" glyph-name="user-1" d="M874.039 810.039c-96.703 96.703-225.281 149.961-362.039 149.961-136.766 0-265.336-53.258-362.039-149.961s-149.961-225.273-149.961-362.039c0-136.758 53.258-265.336 149.961-362.039s225.273-149.961 362.039-149.961c136.758 0 265.336 53.258 362.039 149.961s149.961 225.281 149.961 362.039c0 136.766-53.258 265.336-149.961 362.039zM256.68 75.227c21.414 123.297 128.258 214.242 255.32 214.242 127.070 0 233.906-90.945 255.32-214.242-72.695-49.945-160.648-79.227-255.32-79.227s-182.625 29.281-255.32 79.227zM349.203 512.266c0 89.773 73.031 162.797 162.797 162.797s162.797-73.031 162.797-162.797c0-89.766-73.031-162.797-162.797-162.797s-162.797 73.031-162.797 162.797zM819.289 116.844c-16.148 57.398-48.219 109.477-93.172 150.156-27.578 24.961-58.969 44.656-92.719 58.539 61 39.789 101.406 108.625 101.406 186.727 0 122.852-99.953 222.797-222.805 222.797s-222.797-99.945-222.797-222.797c0-78.102 40.406-146.937 101.398-186.727-33.742-13.883-65.141-33.57-92.719-58.531-44.945-40.68-77.023-92.758-93.172-150.156-88.945 82.602-144.711 200.477-144.711 331.148 0 249.234 202.766 452 452 452s452-202.766 452-452c0-130.68-55.766-248.555-144.711-331.156z" />
<glyph unicode="&#xe939;" glyph-name="play-button" d="M73.143 960l877.714-512-877.714-512z" />
<glyph unicode="&#xe93a;" glyph-name="star-3" d="M957.152 520l-199.328-194.304 47.072-274.432c2.048-12-2.88-24.128-12.736-31.296-5.568-4.064-12.192-6.112-18.816-6.112-5.088 0-10.208 1.216-14.88 3.68l-246.464 129.568-246.432-129.536c-10.752-5.696-23.84-4.768-33.696 2.432-9.856 7.168-14.784 19.296-12.736 31.296l47.072 274.432-199.36 194.272c-8.704 8.512-11.872 21.248-8.096 32.8s13.792 20.032 25.856 21.792l275.488 40 123.2 249.664c10.784 21.856 46.624 21.856 57.408 0l123.2-249.664 275.488-40c12.064-1.76 22.080-10.208 25.856-21.792s0.608-24.256-8.096-32.8z" />
<glyph unicode="&#xe93b;" glyph-name="checklist-2" d="M512 917.333c-259.206 0-469.333-210.128-469.333-469.333s210.128-469.333 469.333-469.333c259.206 0 469.333 210.128 469.333 469.333v0c0 0.076 0 0.166 0 0.256 0 259.064-210.013 469.077-469.077 469.077-0.090 0-0.18 0-0.27 0h0.014zM756.053 551.68l-256-266.667c-7.75-7.902-18.538-12.801-30.471-12.801-0.088 0-0.175 0-0.263 0.001h0.013c-0.107-0.001-0.233-0.002-0.359-0.002-10.085 0-19.343 3.542-26.598 9.449l0.077-0.061-170.667 138.667c-10.622 7.854-17.434 20.334-17.434 34.406 0 23.564 19.103 42.667 42.667 42.667 10.986 0 21.002-4.152 28.565-10.973l-0.038 0.034 140.373-113.92 228.693 238.507c7.776 8.047 18.664 13.044 30.72 13.044 23.581 0 42.697-19.116 42.697-42.697 0-11.525-4.566-21.984-11.989-29.666l0.012 0.012z" />
<glyph unicode="&#xe93c;" glyph-name="paper-plane" d="M373.333 208.555v-197.888c0-13.824 8.875-26.069 22.016-30.421 3.285-1.067 6.656-1.579 9.984-1.579 9.984 0 19.627 4.693 25.771 13.056l115.755 157.525zM1010.56 954.069c-9.813 6.955-22.699 7.893-33.365 2.304l-960-501.333c-11.349-5.931-18.048-18.048-17.109-30.805 0.981-12.8 9.472-23.723 21.547-27.861l266.88-91.221 568.363 485.973-439.808-529.877 447.275-152.875c3.328-1.109 6.827-1.707 10.325-1.707 5.803 0 11.563 1.579 16.64 4.651 8.107 4.949 13.611 13.269 15.019 22.613l117.333 789.333c1.749 11.947-3.285 23.808-13.099 30.805z" />
<glyph unicode="&#xe93d;" glyph-name="call" d="M941.835 287.861c-62.693 0-124.251 9.805-182.584 29.083-28.584 9.749-63.723 0.805-81.168-17.112l-115.139-86.917c-133.528 71.277-215.779 153.501-286.083 286.027l84.36 112.139c21.917 21.888 29.779 53.861 20.36 83.861-19.36 58.64-29.195 120.168-29.195 182.888 0.003 45.309-36.859 82.171-82.165 82.171h-188.053c-45.307 0-82.168-36.861-82.168-82.168 0-519.333 422.501-941.832 941.835-941.832 45.307 0 82.168 36.861 82.168 82.168v187.528c-0.003 45.304-36.864 82.165-82.168 82.165z" />
<glyph unicode="&#xe93e;" glyph-name="pin" d="M512 960c-211.961-0.29-383.71-172.039-384-383.972v-0.028c0-275.68 357.76-620.96 372.96-635.52 2.85-2.772 6.745-4.481 11.040-4.481s8.19 1.709 11.044 4.485l-0.004-0.004c15.2 14.56 372.96 359.84 372.96 635.52-0.29 211.961-172.039 383.71-383.972 384h-0.028zM512 400c-97.202 0-176 78.798-176 176s78.798 176 176 176c97.202 0 176-78.798 176-176v0c-0.060-97.178-78.822-175.94-175.994-176h-0.006z" />
<glyph unicode="&#xe93f;" glyph-name="envelope" d="M98.284 602.281c12.953-9.141 52-36.289 117.142-81.429 65.144-45.141 115.048-79.898 149.715-104.274 3.809-2.672 11.901-8.48 24.28-17.433 12.381-8.959 22.669-16.198 30.855-21.72 8.192-5.52 18.095-11.713 29.72-18.568 11.62-6.849 22.574-12.001 32.86-15.411 10.288-3.439 19.81-5.142 28.571-5.142h1.151c8.76 0 18.287 1.705 28.575 5.142 10.282 3.41 21.246 8.568 32.856 15.411 11.616 6.863 21.52 13.050 29.712 18.568 8.192 5.522 18.471 12.761 30.857 21.72 12.377 8.961 20.479 14.761 24.288 17.433 35.042 24.376 124.193 86.283 267.425 185.716 27.808 19.42 51.041 42.853 69.705 70.283 18.678 27.418 28.006 56.181 28.006 86.273 0 25.146-9.053 46.672-27.15 64.575-18.095 17.907-39.527 26.856-64.281 26.856h-841.144c-29.331 0-51.904-9.903-67.713-29.71-15.808-19.81-23.711-44.573-23.711-74.284 0-24 10.48-50.007 31.429-78.005 20.947-28 43.24-50.003 66.855-66zM966.85 541.144c-124.939-84.564-219.809-150.284-284.562-197.146-21.714-15.994-39.329-28.479-52.857-37.425-13.528-8.953-31.519-18.095-53.999-27.424-22.472-9.343-43.416-14-62.848-14h-1.157c-19.428 0-40.383 4.657-62.856 14-22.472 9.329-40.476 18.471-53.999 27.424-13.52 8.947-31.141 21.432-52.853 37.425-51.432 37.712-146.097 103.436-283.999 197.146-21.72 14.467-40.958 31.049-57.72 49.712v-453.701c0-25.158 8.949-46.672 26.856-64.577 17.903-17.911 39.431-26.864 64.575-26.864h841.146c25.138 0 46.664 8.953 64.569 26.864 17.911 17.911 26.856 39.417 26.856 64.577v453.701c-16.384-18.277-35.426-34.859-57.152-49.712z" />
<glyph unicode="&#xe940;" glyph-name="user-2" d="M504.701 466.736c67.765 0 126.445 24.305 174.39 72.258 47.945 47.945 72.25 106.609 72.25 174.382 0 67.75-24.305 126.421-72.258 174.382-47.953 47.937-106.625 72.242-174.382 72.242-67.773 0-126.437-24.305-174.382-72.25s-72.258-106.617-72.258-174.374c0-67.773 24.312-126.445 72.265-174.39 47.953-47.937 106.625-72.25 174.374-72.25zM936.254 172.597c-1.383 19.953-4.18 41.719-8.297 64.703-4.156 23.156-9.508 45.047-15.914 65.054-6.617 20.68-15.617 41.101-26.742 60.672-11.547 20.312-25.109 38-40.328 52.554-15.914 15.227-35.398 27.469-57.929 36.398-22.453 8.883-47.336 13.383-73.953 13.383-10.453 0-20.562-4.289-40.086-17-12.016-7.836-26.070-16.898-41.758-26.922-13.414-8.547-31.586-16.555-54.031-23.805-21.898-7.086-44.133-10.68-66.078-10.68s-44.172 3.594-66.093 10.68c-22.422 7.242-40.594 15.25-53.992 23.797-15.539 9.93-29.601 18.992-41.797 26.937-19.5 12.711-29.617 17-40.070 17-26.625 0-51.5-4.508-73.945-13.398-22.516-8.914-42.008-21.156-57.937-36.398-15.211-14.562-28.781-32.242-40.312-52.547-11.117-19.57-20.117-39.984-26.742-60.679-6.398-20.008-11.75-41.89-15.906-65.047-4.117-22.953-6.914-44.726-8.297-64.726-1.359-19.594-2.047-39.93-2.047-60.469 0-53.453 16.992-96.726 50.5-128.64 33.094-31.492 76.883-47.469 130.132-47.469h493.061c53.25 0 97.023 15.969 130.124 47.469 33.515 31.89 50.508 75.172 50.508 128.648-0.008 20.633-0.703 40.984-2.070 60.484z" />
<glyph unicode="&#xe941;" glyph-name="speech-bubble" d="M149.367 349.988l-39.947-182.092h74.014l151.74 105.912c13.316-2.168 26.941-3.717 40.877-4.336 12.078-1.238 24.467-1.549 37.162-1.549 28.49 0 82.994 7.123 82.994 7.123 152.67 26.32 271.277 124.18 294.193 245.883 2.787 14.246 4.025 28.801 4.025 43.356 0 19.51-2.478 38.4-7.123 56.979-34.064 135.949-188.904 239.381-374.090 239.381-210.269 0-381.213-133.16-381.213-296.359 0-82.064 42.426-158.865 117.367-214.297zM838.398 601.445c1.551-12.076 2.478-24.465 2.478-37.16 0-22.918-2.785-45.524-8.361-67.201-29.418-118.605-135.33-215.225-274.684-255.484-44.283-12.695-91.975-19.816-141.524-20.127 60.697-56.982 152.053-91.666 250.221-91.666 21.678 0 42.734 1.549 62.865 4.336l142.14-98.787h60.387l-36.541 167.535c61.936 47.381 96.62 112.104 96.62 181.473 0 91.354-59.148 171.871-153.602 217.082z" />
<glyph unicode="&#xe942;" glyph-name="shopping-cart-1" d="M541.997 88.001c0-49.705-40.294-89.999-89.999-89.999s-89.999 40.294-89.999 89.999c0 49.705 40.294 89.999 89.999 89.999s89.999-40.294 89.999-89.999zM843.995 88.001c0-49.705-40.294-89.999-89.999-89.999s-89.999 40.294-89.999 89.999c0 49.705 40.294 89.999 89.999 89.999s89.999-40.294 89.999-89.999zM30 837.997h125.105l144.835-507.023-11.36-22.72c-29.912-59.76 13.51-130.253 80.508-130.253h504.907c16.582 0 30 13.418 30 30s-13.418 30-30 30h-504.907c-22.278 0-36.838 23.458-26.836 43.418l8.292 16.582h523.451c13.388 0 25.166 8.876 28.858 21.768l119.999 419.998c2.578 9.052 0.762 18.78-4.892 26.308-5.684 7.5-14.56 11.924-23.964 11.924h-759.352l-28.066 98.233c-3.692 12.89-15.468 21.768-28.858 21.768h-147.721c-16.582 0-30-13.418-30-30s13.418-30.002 30-30.002z" />
<glyph unicode="&#xe943;" glyph-name="menu-2" d="M896 661.333h-554.667c-23.564 0-42.667 19.103-42.667 42.667s19.103 42.667 42.667 42.667v0h554.667c23.564 0 42.667-19.103 42.667-42.667s-19.103-42.667-42.667-42.667v0zM938.667 448c0 23.564-19.103 42.667-42.667 42.667v0h-768c-23.564 0-42.667-19.103-42.667-42.667s19.103-42.667 42.667-42.667v0h768c23.564 0 42.667 19.103 42.667 42.667v0zM938.667 192c0 23.564-19.103 42.667-42.667 42.667v0h-384c-23.564 0-42.667-19.103-42.667-42.667s19.103-42.667 42.667-42.667v0h384c23.564 0 42.667 19.103 42.667 42.667v0z" />
<glyph unicode="&#xe944;" glyph-name="dollar-symbol" d="M654.413 494.841c-40.183 22.206-82.904 39.126-125.202 56.679-24.533 10.152-48.008 21.995-68.734 38.491-40.818 32.569-32.992 85.442 14.804 106.379 13.535 5.922 27.705 7.825 42.086 8.671 55.41 2.961 108.071-7.191 158.194-31.3 24.956-12.055 33.204-8.248 41.663 17.765 8.883 27.494 16.285 55.41 24.533 83.116 5.499 18.611-1.269 30.878-18.823 38.703-32.146 14.17-65.139 24.321-99.823 29.82-45.259 6.979-45.259 7.191-45.47 52.661-0.211 64.081-0.211 64.081-64.504 64.081-9.306 0-18.611 0.211-27.917 0-30.032-0.846-35.107-6.133-35.953-36.376-0.423-13.535 0-27.071-0.211-40.818-0.211-40.183-0.423-39.549-38.914-53.507-93.056-33.838-150.581-97.285-156.714-198.8-5.499-89.883 41.452-150.581 115.262-194.782 45.47-27.282 95.805-43.355 144.025-64.716 18.823-8.248 36.799-17.765 52.449-30.878 46.316-38.28 37.857-101.938-17.131-126.048-29.397-12.901-60.486-16.073-92.421-12.055-49.277 6.133-96.439 19.034-140.852 42.086-26.013 13.535-33.627 9.94-42.509-18.188-7.614-24.321-14.381-48.854-21.149-73.387-9.094-32.992-5.71-40.818 25.802-56.256 40.183-19.457 83.116-29.397 126.894-36.376 34.261-5.499 35.319-6.979 35.742-42.509 0.211-16.073 0.211-32.358 0.423-48.431 0.211-20.303 9.94-32.146 30.878-32.569 23.687-0.423 47.585-0.423 71.272 0.211 19.457 0.423 29.397 10.997 29.397 30.666 0 21.995 1.057 44.201 0.211 66.196-1.057 22.418 8.671 33.838 30.243 39.76 49.7 13.535 91.998 40.183 124.568 79.943 90.518 109.975 56.045 270.918-72.118 341.768z" />
<glyph unicode="&#xe945;" glyph-name="open-file" d="M970.24 474.027l-61.44-307.2c-12.153-59.033-63.681-102.797-125.437-102.827h-612.697c-70.692 0-128 57.308-128 128v0 512c0 70.692 57.308 128 128 128v0h170.667c8.761-0.071 16.878-2.771 23.616-7.349l-0.149 0.095 117.333-78.080h243.2c70.692 0 128-57.308 128-128v0h-85.333c0 23.564-19.103 42.667-42.667 42.667v0h-256c-8.761 0.071-16.878 2.771-23.616 7.349l0.149-0.095-117.333 78.080h-157.867c-23.564 0-42.667-19.103-42.667-42.667v0-512c0-23.564 19.103-42.667 42.667-42.667v0h7.68l64.853 323.84c12.153 59.033 63.681 102.797 125.437 102.827h517.977c0.063 0 0.138 0 0.212 0 26.486 0 50.154-12.067 65.806-31.003l0.115-0.144c11.946-14.568 19.187-33.394 19.187-53.911 0-5.987-0.617-11.83-1.79-17.469l0.096 0.554z" />
<glyph unicode="&#xe946;" glyph-name="calendar" d="M373.086 395.064c0 12.827-10.405 23.22-23.243 23.22h-81.108c-12.823 0-23.23-10.392-23.23-23.22v-81.097c0-12.844 10.407-23.24 23.23-23.24h81.108c12.838 0 23.243 10.396 23.243 23.24v81.097zM575.785 395.064c0 12.827-10.407 23.22-23.22 23.22h-81.118c-12.823 0-23.23-10.392-23.23-23.22v-81.097c0-12.844 10.407-23.24 23.23-23.24h81.118c12.813 0 23.22 10.396 23.22 23.24v81.097zM778.495 395.064c0 12.827-10.407 23.22-23.23 23.22h-81.108c-12.838 0-23.243-10.392-23.243-23.22v-81.097c0-12.844 10.405-23.24 23.243-23.24h81.108c12.823 0 23.23 10.396 23.23 23.24v81.097zM373.086 192.344c0 12.848-10.405 23.232-23.243 23.232h-81.108c-12.823 0-23.23-10.384-23.23-23.232v-81.083c0-12.836 10.407-23.23 23.23-23.23h81.108c12.838 0 23.243 10.396 23.243 23.23v81.083zM575.785 192.344c0 12.848-10.407 23.232-23.22 23.232h-81.118c-12.823 0-23.23-10.384-23.23-23.232v-81.083c0-12.836 10.407-23.23 23.23-23.23h81.118c12.813 0 23.22 10.396 23.22 23.23v81.083zM778.495 192.344c0 12.848-10.407 23.232-23.22 23.232h-81.118c-12.838 0-23.243-10.384-23.243-23.232v-81.083c0-12.836 10.405-23.23 23.243-23.23h81.118c12.813 0 23.22 10.396 23.22 23.23v81.083zM923.524 845.981v-123.87c0-55.988-45.42-101.105-101.399-101.105h-63.965c-55.984 0-102.005 45.117-102.005 101.105v124.314h-288.309v-124.314c0-55.988-46.020-101.105-101.995-101.105h-63.978c-55.977 0-101.395 45.117-101.395 101.105v123.87c-48.925-1.475-89.127-41.958-89.127-91.718v-725.935c0-50.695 41.090-92.331 91.785-92.331h817.728c50.62 0 91.785 41.721 91.785 92.331v725.935c0 49.76-40.2 90.243-89.125 91.718zM893.814 73.534c0-21.908-17.763-39.682-39.68-39.682h-686.015c-21.917 0-39.68 17.774-39.68 39.682v374.971c0 21.917 17.761 39.691 39.68 39.691h686.013c21.917 0 39.68-17.774 39.68-39.691l0.002-374.971zM201.648 687.413h63.271c19.205 0 34.776 15.548 34.776 34.753v203.069c0 19.207-15.571 34.765-34.776 34.765h-63.271c-19.207 0-34.776-15.559-34.776-34.765v-203.069c0-19.205 15.569-34.753 34.776-34.753zM757.346 687.413h63.271c19.192 0 34.763 15.548 34.763 34.753v203.069c0.002 19.207-15.569 34.765-34.763 34.765h-63.271c-19.202 0-34.774-15.559-34.774-34.765v-203.069c0-19.205 15.571-34.753 34.774-34.753z" />
<glyph unicode="&#xe947;" glyph-name="tag" d="M536.599 925.679c-22.727 22.663-53.739 35.048-85.83 34.279l-328.235-8.366c-62.379-1.556-112.585-51.752-114.141-114.141l-8.357-328.226c-0.76-32.091 11.615-63.102 34.27-85.839l453.103-453.085c45.784-45.684 119.898-45.684 165.683 0l336.592 336.592c45.757 45.748 45.757 119.935 0 165.692zM956.549 340.029l-336.592-336.582c-27.469-27.414-71.944-27.414-99.413 0l-453.094 453.085c-13.593 13.647-21.025 32.247-20.567 51.505l8.357 328.226c0.943 37.428 31.057 67.551 68.484 68.484l328.226 8.366c0.595 0.009 1.172 0.018 1.767 0.018 18.645-0.027 36.521-7.432 49.729-20.595l453.103-453.094c27.405-27.469 27.405-71.944 0-99.413zM306.304 766.505c-62.306 0-112.814-50.507-112.823-112.814 0-62.306 50.517-112.814 112.814-112.814 62.306 0 112.814 50.507 112.814 112.814-0.073 62.269-50.535 112.74-112.804 112.814zM306.304 587.742c-36.43 0-65.949 29.528-65.958 65.949 0 36.421 29.528 65.949 65.949 65.949s65.949-29.528 65.949-65.949c-0.037-36.402-29.537-65.903-65.94-65.949z" />
<glyph unicode="&#xe948;" glyph-name="price-tag" d="M530.298-64.002l-530.298 530.307v493.695h493.695l530.307-530.298zM46.11 485.319l484.188-484.188 428.57 428.57-484.188 484.188h-428.57zM207.509 660.262c-50.721 0-92.229 41.509-92.229 92.229s41.509 92.229 92.229 92.229 92.229-41.509 92.229-92.229-41.509-92.229-92.229-92.229zM207.509 798.601c-25.364 0-46.11-20.746-46.11-46.11s20.746-46.11 46.11-46.11 46.11 20.746 46.11 46.11-20.746 46.11-46.11 46.11z" />
<glyph unicode="&#xe949;" glyph-name="reply" d="M398.221 647.112v227.555l-398.221-398.221 398.221-398.221v233.243c284.445 0 483.557-91.021 625.779-290.133-56.888 284.445-227.555 568.888-625.779 625.779z" />
<glyph unicode="&#xe94a;" glyph-name="aI-forge-labs" horiz-adv-x="1390" d="M237.76 401.602v509.255c0 12.124-4.816 23.752-13.39 32.325s-20.201 13.389-32.325 13.389c-12.124 0-23.752-4.816-32.325-13.389s-13.39-20.201-13.39-32.325v-509.255c-38.737-10.529-72.933-33.51-97.314-65.401s-37.589-70.916-37.589-111.060c0-40.141 13.209-79.166 37.589-111.056s58.577-54.872 97.314-65.401v-52.114c0-12.123 4.816-23.749 13.39-32.322 8.573-8.576 20.201-13.392 32.325-13.392s23.752 4.816 32.325 13.392c8.573 8.572 13.39 20.198 13.39 32.322v52.114c38.737 10.529 72.933 33.51 97.314 65.401s37.589 70.916 37.589 111.056c0 40.144-13.209 79.17-37.589 111.060s-58.577 54.872-97.314 65.401zM192.046 133.712c-18.083 0-35.76 5.365-50.795 15.411s-26.754 24.324-33.674 41.029c-6.92 16.709-8.731 35.090-5.203 52.827 3.528 17.733 12.235 34.026 25.022 46.811s29.078 21.497 46.813 25.022c17.736 3.529 36.119 1.719 52.825-5.204 16.706-6.919 30.986-18.637 41.032-33.671s15.409-32.713 15.409-50.798c0-24.247-9.633-47.503-26.779-64.647-17.146-17.148-40.402-26.781-64.65-26.781zM1380.619 225.141c-0.132 40.437-13.663 79.693-38.48 111.62-24.814 31.927-59.513 54.729-98.662 64.841v509.255c0 12.124-4.816 23.752-13.392 32.325-8.572 8.573-20.198 13.389-32.322 13.389-12.127 0-23.753-4.816-32.325-13.389-8.576-8.573-13.389-20.201-13.389-32.325v-509.255c-38.74-10.529-72.934-33.51-97.317-65.401-24.379-31.89-37.588-70.916-37.588-111.060 0-40.141 13.21-79.166 37.588-111.056 24.382-31.89 58.576-54.872 97.317-65.401v-52.114c0-12.123 4.813-23.749 13.389-32.322 8.572-8.576 20.198-13.392 32.325-13.392 12.123 0 23.749 4.816 32.322 13.392 8.576 8.572 13.392 20.198 13.392 32.322v52.114c39.15 10.112 73.849 32.914 98.662 64.841 24.817 31.927 38.349 71.183 38.48 111.616zM1197.762 133.712c-18.085 0-35.763 5.365-50.798 15.411s-26.752 24.324-33.671 41.029c-6.923 16.709-8.733 35.090-5.204 52.827 3.525 17.733 12.237 34.026 25.022 46.811s29.078 21.497 46.811 25.022c17.737 3.529 36.118 1.719 52.827-5.204 16.706-6.919 30.983-18.637 41.029-33.671s15.411-32.713 15.411-50.798c0-24.247-9.633-47.503-26.781-64.647-17.145-17.148-40.4-26.781-64.647-26.781zM740.619 858.743v52.114c0 12.124-4.816 23.752-13.392 32.325-8.572 8.573-20.198 13.389-32.322 13.389-12.127 0-23.753-4.816-32.325-13.389-8.576-8.573-13.389-20.201-13.389-32.325v-52.114c-38.74-10.527-72.934-33.509-97.317-65.399-24.379-31.89-37.588-70.916-37.588-111.058s13.21-79.168 37.588-111.058c24.382-31.89 58.576-54.872 97.317-65.397v-509.261c0-12.123 4.813-23.749 13.389-32.322 8.572-8.576 20.198-13.392 32.325-13.392 12.123 0 23.749 4.816 32.322 13.392 8.576 8.572 13.392 20.198 13.392 32.322v509.261c38.736 10.525 72.931 33.507 97.313 65.397 24.379 31.89 37.588 70.916 37.588 111.058s-13.21 79.168-37.588 111.058c-24.382 31.89-58.576 54.872-97.313 65.399zM694.905 590.855c-18.085 0-35.763 5.364-50.798 15.41s-26.752 24.325-33.671 41.032c-6.923 16.707-8.733 35.090-5.204 52.825 3.525 17.735 12.237 34.026 25.022 46.813s29.078 21.494 46.811 25.022c17.737 3.528 36.118 1.717 52.827-5.203 16.706-6.92 30.983-18.639 41.029-33.674s15.411-32.712 15.411-50.795c0-24.248-9.633-47.504-26.781-64.65-17.145-17.146-40.4-26.781-64.647-26.781z" />
<glyph unicode="&#xe94b;" glyph-name="allow22" d="M626.549-60.727l-114.57 48.079-114.57-48.079c-7.010-2.973-14.814-3.515-22.169-1.538-7.353 1.977-13.834 6.361-18.407 12.449l-75.017 98.885-123.436 15.686c-7.544 0.932-14.56 4.356-19.935 9.731-5.375 5.373-8.8 12.39-9.73 19.934l-15.685 123.436-98.885 75.017c-6.089 4.573-10.471 11.054-12.448 18.407s-1.436 15.159 1.537 22.17l48.079 114.57-48.079 114.57c-2.973 7.010-3.515 14.814-1.537 22.169 1.978 7.353 6.36 13.834 12.448 18.407l98.885 75.017 15.685 123.436c0.931 7.544 4.356 14.56 9.73 19.935s12.391 8.8 19.935 9.73l123.436 15.685 75.017 98.885c4.573 6.089 11.054 10.471 18.407 12.448s15.159 1.436 22.169-1.537l114.57-48.079 114.57 48.079c7.012 2.973 14.816 3.515 22.17 1.537s13.834-6.36 18.407-12.448l75.017-98.885 123.436-15.685c7.544-0.931 14.561-4.356 19.934-9.73 5.375-5.375 8.8-12.391 9.731-19.935l15.686-123.436 98.885-75.017c6.089-4.573 10.472-11.054 12.449-18.407s1.435-15.159-1.538-22.169l-48.079-114.57 48.079-114.57c2.973-7.012 3.515-14.816 1.538-22.17s-6.361-13.834-12.449-18.407l-98.885-75.017-15.686-123.436c-0.932-7.544-4.356-14.561-9.731-19.934-5.373-5.375-12.39-8.8-19.934-9.731l-123.436-15.686-75.017-98.885c-4.573-6.089-11.054-10.472-18.407-12.449s-15.159-1.435-22.17 1.538zM524.254 55.89l102.294-43.646 68.197 89.679c2.763 3.562 6.204 6.542 10.126 8.766s8.246 3.648 12.721 4.19l111.161 14.323 14.321 111.159c0.542 4.477 1.966 8.8 4.19 12.721s5.204 7.363 8.768 10.126l89.677 68.197-43.646 102.294c-3.414 8.538-3.414 18.061 0 26.597l43.646 102.296-89.677 68.197c-3.564 2.761-6.544 6.203-8.768 10.124s-3.648 8.246-4.19 12.721l-14.321 111.161-111.161 14.321c-4.475 0.542-8.8 1.966-12.721 4.19s-7.363 5.204-10.126 8.768l-68.197 89.678-102.294-43.646c-8.536-3.415-18.059-3.415-26.597 0l-102.294 43.646-68.197-89.678c-2.763-3.564-6.204-6.544-10.126-8.768s-8.246-3.648-12.721-4.19l-111.159-14.321-14.323-109.115c-0.542-4.475-1.966-8.8-4.19-12.721s-5.204-7.363-8.767-10.126l-89.679-68.197 43.646-102.294c3.415-8.538 3.415-18.061 0-26.597l-43.646-102.294 89.679-68.197c3.563-2.763 6.543-6.204 8.767-10.126s3.648-8.246 4.19-12.721l14.323-111.161 111.159-14.321c4.475-0.542 8.8-1.966 12.721-4.19s7.363-5.204 10.126-8.768l68.197-89.677 102.294 43.646c4.509 1.509 9.273 2.107 14.015 1.754 4.742-0.351 9.367-1.643 13.604-3.801h-1.022zM447.901 209.304c-5.674-0.027-11.264 1.363-16.266 4.042-5.001 2.679-9.255 6.564-12.375 11.303l-140.486 213.796c-2.463 3.762-4.16 7.972-4.996 12.389s-0.794 8.957 0.124 13.359c0.918 4.4 2.694 8.578 5.227 12.293s5.771 6.894 9.533 9.357c7.596 4.974 16.857 6.727 25.746 4.872 4.402-0.918 8.578-2.694 12.293-5.227 3.715-2.531 6.894-5.771 9.357-9.533l111.843-170.491 238.689 365.875c4.974 7.596 12.761 12.906 21.65 14.761 8.889 1.853 18.15 0.101 25.746-4.873 7.598-4.974 12.907-12.761 14.761-21.65 1.855-8.889 0.102-18.15-4.872-25.746l-265.968-409.18c-3.243-4.939-7.714-8.949-12.975-11.638-5.259-2.689-11.128-3.967-17.032-3.707z" />
<glyph unicode="&#xe94c;" glyph-name="analycis" horiz-adv-x="1008" d="M149.727 474c23.838 0 45.411 9.562 61.352 24.92l87.46-43.725c-0.439-3.562-1.085-7.064-1.085-10.741 0-48.874 39.764-88.637 88.637-88.637 48.871 0 88.637 39.764 88.637 88.637 0 13.642-3.354 26.413-8.889 37.97l118.646 118.644c11.556-5.533 24.328-8.887 37.969-8.887 48.874 0 88.637 39.764 88.637 88.637 0 9.202-1.808 17.904-4.423 26.252l103.086 77.295c14.064-9.396 30.925-14.91 49.065-14.91 48.874 0 88.637 39.763 88.637 88.636s-39.764 88.636-88.637 88.636c-48.871 0-88.637-39.764-88.637-88.636 0-9.202 1.809-17.904 4.425-26.252l-103.087-77.295c-14.063 9.396-30.923 14.912-49.065 14.912-48.873 0-88.637-39.765-88.637-88.637 0-13.642 3.356-26.415 8.889-37.97l-118.646-118.644c-11.556 5.533-24.328 8.887-37.969 8.887-23.837 0-45.411-9.564-61.353-24.92l-87.46 43.725c0.439 3.561 1.086 7.064 1.086 10.741 0 48.874-39.762 88.637-88.637 88.637s-88.636-39.765-88.636-88.637c0-48.873 39.764-88.637 88.636-88.637zM978.939-2.667h-31.514v624.395c0 16.328-13.217 29.546-29.546 29.546h-118.182c-16.33 0-29.546-13.217-29.546-29.546v-624.395h-59.091v447.122c0 16.328-13.217 29.546-29.546 29.546h-118.182c-16.328 0-29.546-13.217-29.546-29.546v-447.122h-59.091v210.758c0 16.33-13.217 29.546-29.546 29.546h-118.182c-16.328 0-29.546-13.216-29.546-29.546v-210.758h-59.091v328.94c0 16.328-13.216 29.546-29.546 29.546h-118.181c-16.329 0-29.545-13.217-29.545-29.546v-328.94h-31.515c-16.329 0-29.546-13.216-29.546-29.546 0-16.328 13.217-29.546 29.546-29.546h949.394c16.328 0 29.546 13.217 29.546 29.546s-13.217 29.546-29.546 29.546z" />
<glyph unicode="&#xe94d;" glyph-name="app-swift" horiz-adv-x="823" d="M411.279-63.461c-7.223-0.025-14.267 2.243-20.117 6.48l-94.112 68.197c-91.262 66.562-165.536 153.714-216.786 254.377s-78.030 211.997-78.165 324.954v198.453c0.003 7.007 2.165 13.844 6.192 19.579s9.723 10.090 16.313 12.473l375.082 136.393c7.492 2.709 15.694 2.709 23.186 0l375.083-136.393c6.591-2.383 12.286-6.738 16.313-12.473 4.025-5.735 6.188-12.572 6.191-19.579v-198.453c-0.081-113.016-26.836-224.415-78.088-325.142s-125.554-187.934-216.863-254.531l-94.112-68.197c-5.891-4.114-12.933-6.262-20.117-6.137zM70.295 765.129v-174.584c0.231-102.101 24.49-202.713 70.813-293.702 46.323-90.987 113.41-169.794 195.837-230.049l74.334-53.876 74.334 53.876c82.427 60.255 149.514 139.063 195.837 230.049 46.322 90.988 70.58 191.6 70.812 293.702v174.584l-340.984 124.118-340.984-124.118zM391.161 111.779l-13.98 10.23c-73.898 53.752-134.042 124.213-175.522 205.634-41.482 81.421-63.126 171.496-63.167 262.876v102.296c0.003 7.007 2.165 13.844 6.192 19.579s9.723 10.091 16.313 12.474l238.689 86.609c7.492 2.708 15.694 2.708 23.186 0l238.689-86.609c6.481-2.343 12.102-6.594 16.119-12.194 4.019-5.6 6.245-12.286 6.386-19.177v-102.294c-0.042-91.379-21.685-181.454-63.167-262.876-41.48-81.423-101.624-151.884-175.522-205.636l-13.98-10.23c-5.766-4.366-12.773-6.787-20.007-6.909-7.232-0.123-14.318 2.058-20.228 6.228zM206.689 669.627v-79.108c0.158-79.375 18.714-157.634 54.213-228.631s86.971-132.798 150.377-180.55c63.406 47.752 114.879 109.553 150.377 180.55 35.499 70.997 54.055 149.256 54.213 228.631v79.108l-204.59 74.336-204.59-74.336z" />
<glyph unicode="&#xe94e;" glyph-name="app-swift-devops-2" horiz-adv-x="1411" d="M1357.51 956.444h-1294.221c-12.259 0-24.016-4.87-32.684-13.538s-13.538-20.425-13.538-32.684v-924.444c0-12.258 4.87-24.016 13.538-32.684s20.425-13.54 32.684-13.54h1294.221c12.261 0 24.016 4.872 32.686 13.54 8.668 8.668 13.537 20.425 13.537 32.684v924.444c0 12.259-4.87 24.016-13.537 32.684-8.67 8.668-20.425 13.538-32.686 13.538zM1311.289 32.001h-1201.778v831.999h1201.778v-831.999zM285.598 143.858l193.673 270.864 193.67-270.864c3.265-5.511 7.641-10.286 12.85-14.017 5.206-3.732 11.134-6.34 17.406-7.66 6.269-1.32 12.745-1.32 19.017-0.002 6.269 1.315 12.199 3.923 17.408 7.653s9.587 8.504 12.852 14.015c3.268 5.511 5.352 11.644 6.124 18.004s0.212 12.814-1.643 18.946c-1.857 6.133-4.965 11.812-9.134 16.68l-68.408 96.142 169.636 217.707 287.039-369.778c3.541-5.222 8.115-9.667 13.437-13.053 5.325-3.388 11.284-5.652 17.515-6.649s12.6-0.708 18.714 0.849c6.114 1.559 11.847 4.351 16.841 8.208s9.145 8.695 12.199 14.215c3.054 5.523 4.945 11.612 5.555 17.89 0.612 6.281-0.068 12.62-2 18.628s-5.072 11.555-9.23 16.302l-323.557 415.999c-4.319 5.568-9.855 10.074-16.186 13.173-6.328 3.099-13.282 4.71-20.328 4.71-7.047 0-14.001-1.611-20.33-4.71-6.331-3.099-11.867-7.605-16.186-13.173l-189.049-243.127-106.774 149.297c-4.287 5.919-9.915 10.738-16.423 14.061s-13.71 5.056-21.017 5.056c-7.309 0-14.511-1.734-21.019-5.056s-12.136-8.142-16.423-14.061l-231.11-323.554c-5.894-9.953-7.843-21.752-5.462-33.071s8.919-21.331 18.322-28.067c9.404-6.733 20.991-9.696 32.471-8.304 11.482 1.39 22.025 7.036 29.548 15.822v0.924zM617.954 632.889c25.529 0 46.223 20.694 46.223 46.221 0 25.529-20.694 46.223-46.223 46.223-25.527 0-46.221-20.694-46.221-46.223 0-25.527 20.694-46.221 46.221-46.221z" />
<glyph unicode="&#xe94f;" glyph-name="chat" d="M795.7 365.3h-201.5c-13 0-23.6 10.6-23.6 23.6s10.6 23.6 23.6 23.6h201.5c13 0 23.6-10.6 23.6-23.6s-10.6-23.6-23.6-23.6zM795.7 271.8h-201.5c-13 0-23.6 10.6-23.6 23.6s10.6 23.6 23.6 23.6h201.5c13 0 23.6-10.6 23.6-23.6s-10.6-23.6-23.6-23.6zM795.7 178.4h-201.5c-13 0-23.6 10.6-23.6 23.6s10.6 23.6 23.6 23.6h201.5c13 0 23.6-10.6 23.6-23.6s-10.6-23.6-23.6-23.6zM433.4 697.9h-201.5c-13 0-23.6 10.6-23.6 23.6s10.6 23.6 23.6 23.6h201.5c13 0 23.6-10.6 23.6-23.6s-10.6-23.6-23.6-23.6zM433.4 604.5h-201.5c-13 0-23.6 10.6-23.6 23.6s10.6 23.6 23.6 23.6h201.5c13 0 23.6-10.6 23.6-23.6s-10.6-23.6-23.6-23.6zM332.7 511h-100.8c-13 0-23.6 10.6-23.6 23.6s10.6 23.6 23.6 23.6h100.7c13 0 23.6-10.6 23.6-23.6s-10.5-23.6-23.5-23.6zM927.2 6.9c-3.4 0-7.3 0.6-11.5 2.2-0.9 0.3-1.8 0.7-2.7 1.2l-86 44.1h-132c-13 0-23.6 10.6-23.6 23.6s10.6 23.6 23.6 23.6h134.1c0.1 0 0.2 0 0.2 0 7.2 0 11.1-1 17.7-4.5l0.3-0.2 57.7-29.6-3.2 58.8c-1 8.1 1.9 16 8.1 21.4 0.1 0.1 0.2 0.2 0.4 0.3 43.8 37.2 68.9 91.1 68.9 147.9v9.5c0 107.1-87.2 194.2-194.5 194.2h-184.2c-107.2 0-194.5-87.1-194.5-194.2v-9.5c0-107.1 87.2-194.2 194.5-194.2h26.5c13 0 23.6-10.6 23.6-23.6s-10.6-23.5-23.6-23.5h-26.5c-64.3 0-124.9 25.2-170.7 70.9s-71 106.2-71 170.5v9.5c0 64.2 25.2 124.8 71 170.5s106.4 70.9 170.7 70.9h184.2c64.3 0 124.9-25.2 170.7-70.9s71-106.3 71-170.5v-9.5c0-66.8-27.9-130.4-76.9-176.2l4.5-82.8c0-0.1 0-0.1 0-0.2 0.7-14.4-7.4-22-10.9-24.6-3-2.2-8.4-5.1-15.9-5.1zM102.1 331.6c-7.5 0-12.9 3-16 5.2-3.5 2.6-11.7 10.3-10.8 24.8l4.5 82.6c-49 45.7-76.8 109.3-76.8 176.2v9.4c0 64.2 25.2 124.8 71 170.5s106.4 70.9 170.7 70.9h35.6c13 0 23.6-10.6 23.6-23.6s-10.8-23.6-23.8-23.6h-35.6c-107.2 0-194.5-87.1-194.5-194.2v-9.4c0-56.8 25-110.6 68.6-147.8 6.5-5.4 9.7-13.4 8.6-21.8l-3.2-58.8 58.2 29.9c6.7 3.5 10.4 4.3 17.8 4.3h205.5c13 0 23.6-10.6 23.6-23.6s-10.4-23.6-23.5-23.6h-203.4l-85.9-44.1c-0.8-0.4-1.7-0.8-2.6-1.2-4.3-1.5-8.2-2.1-11.6-2.1zM122.4 359v0c0 0 0 0 0 0zM623.6 499.4c-3.6 0-7.2 0.8-10.6 2.5-11.6 5.9-16.3 20-10.4 31.7 13.7 27.2 20.6 56.4 20.6 86.8v9.4c0 107.1-87.2 194.2-194.5 194.2h-80.6c-13 0-23.6 10.6-23.6 23.6s10.6 23.6 23.6 23.6h80.6c64.3 0 124.9-25.2 170.7-70.9s71-106.3 71-170.5v-9.4c0-37.9-8.6-74.3-25.7-108.1-4.2-8.2-12.5-12.9-21.1-12.9z" />
<glyph unicode="&#xe950;" glyph-name="cloud-migrate-pro" horiz-adv-x="808" d="M707.368-53.054h-606.316c-26.801 0.003-52.504 10.647-71.455 29.599s-29.598 44.654-29.598 71.454v808.422c0 26.801 10.647 52.504 29.598 71.455s44.654 29.598 71.455 29.598h606.316c26.802 0 52.504-10.647 71.456-29.598 18.949-18.951 29.596-44.654 29.596-71.455v-808.422c0-26.799-10.647-52.502-29.596-71.454-18.952-18.952-44.654-29.599-71.456-29.599zM101.053 890.105c-8.934 0-17.501-3.549-23.818-9.866s-9.866-14.885-9.866-23.818v-808.422c0-8.933 3.549-17.5 9.866-23.816 6.317-6.319 14.885-9.868 23.818-9.868h606.316c8.933 0 17.502 3.549 23.819 9.868 6.316 6.316 9.865 14.883 9.865 23.816v808.422c0 8.934-3.549 17.501-9.865 23.818s-14.886 9.866-23.819 9.866h-606.316zM303.158 81.683h-67.368c-8.934 0-17.501 3.549-23.818 9.868-6.317 6.316-9.866 14.883-9.866 23.816 0 8.936 3.549 17.502 9.866 23.819 6.317 6.319 14.885 9.865 23.818 9.865h67.368c8.933 0 17.502-3.546 23.819-9.865 6.316-6.316 9.865-14.883 9.865-23.819 0-8.933-3.549-17.5-9.865-23.816-6.316-6.319-14.886-9.868-23.819-9.868z" />
<glyph unicode="&#xe951;" glyph-name="code-genius-hub" horiz-adv-x="823" d="M411.279-63.788c-7.223-0.025-14.267 2.243-20.117 6.478l-94.112 68.197c-91.262 66.563-165.536 153.716-216.786 254.378s-78.030 211.995-78.165 324.954v198.451c0.003 7.008 2.165 13.845 6.192 19.58s9.723 10.090 16.313 12.473l375.082 136.393c7.492 2.709 15.694 2.709 23.186 0l375.083-136.393c6.591-2.383 12.286-6.738 16.313-12.473 4.025-5.735 6.188-12.572 6.191-19.58v-198.451c-0.081-113.016-26.836-224.417-78.088-325.144-51.252-100.725-125.554-187.933-216.863-254.529l-94.112-68.197c-5.891-4.114-12.933-6.263-20.117-6.137zM70.295 764.802v-174.584c0.231-102.101 24.49-202.713 70.813-293.702s113.41-169.796 195.837-230.049l74.334-53.876 74.334 53.876c82.427 60.253 149.514 139.061 195.837 230.049 46.322 90.988 70.58 191.6 70.812 293.702v174.584l-340.984 124.117-340.984-124.117zM391.161 111.45l-13.98 10.23c-73.898 53.753-134.042 124.215-175.522 205.636-41.482 81.421-63.126 171.496-63.167 262.876v102.294c0.003 7.009 2.165 13.846 6.192 19.58s9.723 10.091 16.313 12.473l238.689 86.61c7.492 2.708 15.694 2.708 23.186 0l238.689-86.61c6.481-2.342 12.102-6.592 16.119-12.192 4.019-5.6 6.245-12.286 6.386-19.177v-102.296c-0.042-91.379-21.685-181.454-63.167-262.876-41.48-81.421-101.624-151.883-175.522-205.636l-13.98-10.228c-5.766-4.368-12.773-6.787-20.007-6.909-7.232-0.123-14.318 2.058-20.228 6.226zM206.689 669.3v-79.108c0.158-79.377 18.714-157.636 54.213-228.631 35.498-70.997 86.971-132.798 150.377-180.55 63.406 47.752 114.879 109.553 150.377 180.55 35.499 70.995 54.055 149.254 54.213 228.631v79.108l-204.59 74.334-204.59-74.334z" />
<glyph unicode="&#xe952;" glyph-name="data-guard-sentinel" d="M443.803-63.476c-117.565 0.002-230.314 46.703-313.445 129.835-83.131 83.13-129.833 195.879-129.833 313.445s46.702 230.314 129.833 313.445c83.131 83.132 195.88 129.834 313.445 129.834 9.043 0 17.717-3.593 24.111-9.987s9.988-15.068 9.988-24.111v-375.081h375.081c9.043 0 17.717-3.594 24.111-9.988s9.988-15.068 9.988-24.111c-0.002-117.565-46.703-230.314-129.835-313.445-83.13-83.132-195.879-129.835-313.445-129.835zM409.704 754.884c-70.807-6.79-138.223-33.577-194.384-77.231-56.16-43.656-98.749-102.382-122.798-169.324-24.049-66.944-28.567-139.346-13.026-208.76s50.5-132.977 100.798-183.274c50.297-50.299 113.86-85.257 183.274-100.799s141.816-11.022 208.76 13.027c66.943 24.049 125.668 66.637 169.324 122.798 43.654 56.161 70.441 123.577 77.231 194.384h-375.081c-9.043 0-17.717 3.594-24.111 9.988s-9.988 15.068-9.988 24.111v375.081zM989.377 482.098h-409.18c-9.043 0-17.717 3.594-24.111 9.988s-9.988 15.068-9.988 24.111v409.18c0 9.043 3.594 17.717 9.988 24.111s15.068 9.987 24.111 9.987c58.212 0 115.855-11.466 169.635-33.743 53.782-22.277 102.648-54.928 143.81-96.091s73.815-90.029 96.091-143.811c22.276-53.78 33.743-111.423 33.743-169.635 0-9.043-3.594-17.717-9.988-24.111s-15.068-9.988-24.111-9.988zM614.296 550.296h340.982c-7.682 87.852-46.073 170.19-108.433 232.549-62.358 62.36-144.696 100.752-232.549 108.434v-340.983z" />
<glyph unicode="&#xe953;" glyph-name="data-guard-sentinel-2" horiz-adv-x="772" d="M308.258-60.733c-7.109 3.043-12.975 8.414-16.629 15.229-3.656 6.815-4.887 14.672-3.488 22.278l60.695 334.846h-300.065c-6.262-0.013-12.406 1.699-17.759 4.947-5.353 3.247-9.709 7.907-12.589 13.466-2.638 5.39-3.807 11.383-3.388 17.369 0.419 5.988 2.411 11.758 5.775 16.728l409.181 579.673c4.514 6.359 11.073 10.979 18.58 13.089 7.509 2.11 15.513 1.582 22.679-1.495 6.978-2.874 12.805-7.981 16.569-14.522s5.253-14.145 4.232-21.623l-61.378-334.846h300.066c6.262 0.013 12.406-1.699 17.759-4.945 5.353-3.248 9.708-7.908 12.588-13.468 2.639-5.39 3.807-11.382 3.388-17.369s-2.411-11.758-5.775-16.728l-409.18-579.673c-4.318-6.597-10.789-11.492-18.313-13.856-7.522-2.362-15.63-2.045-22.946 0.9zM114.579 379.817h275.174c5.009 0.008 9.96-1.088 14.497-3.21 4.537-2.12 8.553-5.216 11.759-9.065 3.164-3.854 5.447-8.355 6.685-13.186s1.4-9.874 0.475-14.776l-40.577-223.002 282.335 399.632h-275.174c-5.009-0.008-9.96 1.088-14.497 3.21s-8.553 5.217-11.759 9.067c-3.164 3.853-5.447 8.353-6.685 13.184s-1.398 9.876-0.475 14.776l40.577 223.004-282.335-399.634z" />
<glyph unicode="&#xe954;" glyph-name="happy-clients" horiz-adv-x="1280" d="M487.5 410.5c-20.7 0-37.5 16.8-37.5 37.5s16.8 37.5 37.5 37.5c20.7 0 37.5-16.8 37.5-37.5s-16.8-37.5-37.5-37.5zM487.5 474.5c-14.6 0-26.5-11.9-26.5-26.5s11.9-26.5 26.5-26.5c14.6 0 26.5 11.9 26.5 26.5s-11.9 26.5-26.5 26.5zM487.5 260.5c-103.4 0-187.5 84.1-187.5 187.5s84.1 187.5 187.5 187.5c2.2 0 4.4 0 6.6-0.1l30.9-1.1v-75.1l-33.2 1.2c-1.5 0.1-2.9 0.1-4.3 0.1-62 0-112.5-50.5-112.5-112.5s50.5-112.5 112.5-112.5c1.4 0 2.9 0 4.3 0.1l33.2 1.2v-75.1l-30.9-1.1c-2.2-0.1-4.4-0.1-6.6-0.1zM525-39.5h-112.5c-20.7 0-37.5 16.8-37.5 37.5v53.1c-30.6 8.7-60.3 21.1-88.4 36.9l-37.7-37.7c-7.1-7.1-16.5-11-26.5-11s-19.4 3.9-26.5 11l-106.2 106c-14.6 14.6-14.6 38.4 0 53l37.8 37.8c-15.8 28-28.2 57.7-36.9 88.4h-53.1c-20.7 0-37.5 16.8-37.5 37.5v150c0 20.7 16.8 37.5 37.5 37.5h53.1c8.7 30.6 21.1 60.4 36.9 88.4l-37.7 37.7c-14.6 14.6-14.6 38.4 0 53l106.1 106.1c14.6 14.6 38.4 14.6 53 0l37.7-37.7c28 15.8 57.7 28.2 88.4 36.9v0 26.6h-14.3l14.3 28.7c1.1 19.7 17.5 35.3 37.4 35.3h112.6v-225.6l-32.6 0.6c-1.6 0-3.3 0-4.9 0-144.7 0-262.5-117.8-262.5-262.5s117.8-262.5 262.5-262.5c1.6 0 3.3 0 4.9 0l32.6 0.6v-225.6zM439 24.5h22v98.1c-167.7 13.5-300 154.3-300 325.4s132.3 311.9 300 325.4v98.1h-22v-74.9l-46.5-13.2c-25.8-7.3-50.9-17.8-74.5-31.1l-42.3-23.8-53.3 53.3-68.6-68.6 53.3-53.3-23.8-42.3c-13.3-23.7-23.8-48.7-31.1-74.6l-13.2-46.5h-75v-97h74.9l13.2-46.5c7.3-25.8 17.8-50.9 31.1-74.5l23.8-42.3-53.3-53.3 68.6-68.6 53.3 53.3 42.3-23.8c23.8-13.3 48.9-23.8 74.6-31.1l46.5-13.2v-75zM1242.5-39.5h-642.5v975h380v-262.5c0-20.7 16.8-37.5 37.5-37.5h262.5v-637.5c0-20.7-16.8-37.5-37.5-37.5zM664 24.5h552v547h-34.4c7.9-14.4 12.4-30.9 12.4-48.5 0-29.7-12.8-56.4-33.2-75 20.4-18.6 33.2-45.3 33.2-75s-12.8-56.4-33.2-75c20.4-18.6 33.2-45.3 33.2-75 0-56-45.5-101.5-101.5-101.5h-380c-17.6 0-34.1 4.5-48.5 12.4v-109.4zM712.5 260.5c-20.7 0-37.5-16.8-37.5-37.5s16.8-37.5 37.5-37.5h380c20.7 0 37.5 16.8 37.5 37.5s-16.8 37.5-37.5 37.5h-380zM712.5 410.5c-20.7 0-37.5-16.8-37.5-37.5s16.8-37.5 37.5-37.5h380c20.7 0 37.5 16.8 37.5 37.5s-16.8 37.5-37.5 37.5h-380zM712.5 560.5c-20.7 0-37.5-16.8-37.5-37.5s16.8-37.5 37.5-37.5h380c20.7 0 37.5 16.8 37.5 37.5s-16.8 37.5-37.5 37.5h-380zM712.5 710.5c-20.7 0-37.5-16.8-37.5-37.5s16.8-37.5 37.5-37.5h155c20.7 0 37.5 16.8 37.5 37.5s-16.8 37.5-37.5 37.5h-155zM664 871.5v-109.4c14.4 7.9 30.9 12.4 48.5 12.4h155c17.6 0 34.1-4.5 48.5-12.4v109.4h-252zM1258 710.5h-203v203.1l203-203.1z" />
<glyph unicode="&#xe955;" glyph-name="long-right-arrow" horiz-adv-x="3300" d="M3186.893 404.663c22.221 22.216 22.221 58.236 0 80.452l-362.041 362.039c-22.209 22.216-58.231 22.216-80.452 0-22.209-22.216-22.209-58.236 0-80.452l321.809-321.812-321.809-321.812c-22.209-22.216-22.209-58.236 0-80.453 22.221-22.216 58.243-22.216 80.452 0l362.041 362.040zM74.667 388h3072.006v113.778h-3072.006v-113.778z" />
<glyph unicode="&#xe956;" glyph-name="net-connect-plus" horiz-adv-x="1060" d="M92.124 37.080c-58.711 66.061-91.141 151.369-91.141 239.749 0 88.378 32.43 173.687 91.141 239.747l395.931 428.771c3.201 3.356 7.053 6.027 11.318 7.853s8.857 2.766 13.495 2.766c4.639 0 9.23-0.941 13.495-2.766s8.117-4.497 11.32-7.853c6.796-6.837 10.61-16.086 10.61-25.726s-3.814-18.889-10.61-25.726l-394.471-428.043c-46.373-52.114-71.992-119.447-71.992-189.206s25.619-137.090 71.992-189.206c21.637-24.359 48.19-43.856 77.91-57.207s61.93-20.255 94.512-20.255c32.581 0 64.792 6.904 94.512 20.255s56.271 32.849 77.91 57.207l452.125 490.077c31.194 35.233 48.414 80.662 48.414 127.718s-17.219 92.487-48.414 127.72c-14.55 16.351-32.394 29.437-52.364 38.398-19.968 8.961-41.607 13.594-63.495 13.594s-43.525-4.633-63.495-13.594c-19.968-8.961-37.814-22.047-52.364-38.398l-452.127-489.348c-9.378-10.551-16.433-22.954-20.706-36.408-4.276-13.452-5.675-27.653-4.107-41.682 0.913-13.411 4.633-26.48 10.919-38.36s14.999-22.309 25.571-30.609c16.867-11.657 37.516-16.519 57.813-13.608 20.297 2.909 38.747 13.373 51.662 29.301l109.473 118.96c3.203 3.356 7.053 6.027 11.32 7.852 4.265 1.825 8.855 2.767 13.495 2.767s9.23-0.941 13.495-2.767 8.115-4.497 11.318-7.852c6.796-6.837 10.612-16.086 10.612-25.726s-3.816-18.89-10.612-25.726l-109.473-118.962c-24.316-28.327-58.321-46.569-95.369-51.157-37.049-4.59-74.477 4.804-104.969 26.342-19.116 14.816-34.839 33.555-46.105 54.956-11.268 21.402-17.819 44.968-19.214 69.115-2.462 24.143 0.163 48.534 7.706 71.601s19.833 44.296 36.085 62.322l452.127 490.077c21.015 23.479 46.746 42.261 75.514 55.12s59.922 19.505 91.432 19.505c31.51 0 62.667-6.646 91.434-19.505s54.498-31.641 75.514-55.12c43.705-49.164 67.848-112.659 67.848-178.441 0-65.784-24.143-129.279-67.848-178.444l-452.127-490.077c-28.104-31.485-62.541-56.678-101.060-73.927-38.517-17.25-80.246-26.166-122.449-26.166s-83.932 8.916-122.449 26.166c-38.518 17.25-72.957 42.442-101.060 73.927z" />
</font>
</defs>
</svg>
